アットウィキロゴ

ほおずき程度には赤い頭髪
Akhuta

EXTREME

Level: 10
BPM: 174
Notes: 933

1
口口口口 |----|
口口口口 |----|
口口口口 |----|
口口口口 |----|
2
口口口② |①-②-|
口③口口 |③④⑤-|
口口④口
①⑤口口

⑦口口⑫
⑨口口⑩
⑪口口⑧ |⑥⑦⑧⑨|
⑬口口⑥ |⑩⑪⑫⑬|
3
⑬⑧④⑫ |①②③④|
口⑦③⑪ |⑤⑥⑦⑧|
口⑥②⑩ |⑨⑩⑪⑫|
口⑤①⑨ |⑬---|
4
口口口口 |①-②③|
①口①口 |-④⑤-|
⑤口②口
③口①④

⑧⑥口⑦
⑩口⑨口
口⑥口⑥ |⑥-⑦⑧|
口口口口 |-⑨⑩-|
5
⑩⑤⑥⑦ |①-②③|
口①⑨① |-④⑤-|
⑥⑧⑥④ |⑥-⑦⑧|
③①口② |-⑨⑩-|
6
口口④口 |①-②③|
③①口① |-④⑤-|
口口口口
⑤口①②

⑧⑥口⑨
口⑩口口
⑥口⑥⑦ |⑥-⑦⑧|
口口口口 |-⑨⑩-|
7
⑦⑤⑧⑧ |①-②③|
①⑦①④ |-④⑤-|
⑥⑥口口 |⑥--⑦|
③①口② |--⑧-|
8
口口口口 |①-②③|
①口①② |-④⑤-|
⑤口口口
③口①④

⑧⑥口⑦
⑩口⑨口
口⑥口⑥ |⑥-⑦⑧|
口口口口 |-⑨⑩-|
9
⑩⑤⑥⑦ |①-②③|
口①⑨① |-④⑤-|
⑥⑧⑥④ |⑥-⑦⑧|
③①口② |-⑨⑩-|
10
⑧⑥④⑨ |①-②③|
③①口① |-④⑤-|
⑥⑩⑥⑦ |⑥-⑦⑧|
⑤口①② |-⑨⑩-|
11
口口口口 |①②③④|
④②③① |⑤⑥⑦⑧|
⑧口⑦口
⑥口⑤口

⑭口⑬口
口⑯口⑮
口⑫口⑪ |⑨⑩⑪⑫|
口⑩口⑨ |⑬⑭⑮⑯|
12
口口口口 |①-②③|
①口①口 |-④⑤-|
⑤口②口
③口①④

⑧⑥口⑦
⑩口⑨口
口⑥口⑥ |⑥-⑦⑧|
口口口口 |-⑨⑩-|
13
⑩⑤⑥⑦ |①-②③|
口①⑨① |-④⑤-|
⑥⑧⑥④ |⑥-⑦⑧|
③①口② |-⑨⑩-|
14
口口④口 |①-②③|
③①口① |-④⑤-|
口口口口
⑤口①②

⑧⑥口⑨
口⑩口口
⑥口⑥⑦ |⑥-⑦⑧|
口口口口 |-⑨⑩-|
15
⑦⑤⑧⑧ |①-②③|
①⑦①④ |-④⑤-|
⑥⑥口口 |⑥--⑦|
③①口② |--⑧-|
16
口口口口 |①-②③|
①口①② |-④⑤-|
⑤口口口
③口①④

⑧⑥口⑦
⑩口⑨口
口⑥口⑥ |⑥-⑦⑧|
口口口口 |-⑨⑩-|
17
口⑤口口 |①-②③|
口①口① |-④⑤-|
口口口④
③①口②

⑩口⑥⑦
口口口⑨
⑥⑧⑥口 |⑥-⑦⑧|
口口口口 |-⑨⑩-|
18
口⑧⑦口 |①②③④|
⑥⑤④口 |⑤⑥⑦⑧|
口口口口
③②①口

⑯口口⑮
口口口口
⑪⑩⑨口 |⑨⑩⑪⑫|
口⑭⑬⑫ |⑬⑭⑮⑯|
19
口口⑤口 |①②③④|
④⑥口① |⑤⑥⑦-|
⑦口⑦③ |----|
②口口口 |----|
20
④口①口 |①---|
口口③口 |----|
口①口① |②--③|
②口①口 |--④-|
21
口口口① |①--②|
口④口口 |--③-|
口②口口 |④---|
口口口③ |----|
22
④口⑦① |①---|
口②③口 |②-③-|
④⑥口① |④-⑤-|
口口⑤口 |⑥-⑦-|
23
口①口口 |①-②-|
②④口口 |③-④-|
口口口口 |⑤---|
口③口⑤ |----|
24
口①口口 |①---|
口④口口 |----|
①口①③ |②--③|
②①口口 |--④-|
25
口口①口 |①--②|
口口口口 |--③-|
口④②口 |④---|
③口口口 |----|
26
①⑦口④ |①---|
③①④② |②-③-|
①口⑥④ |④-⑤-|
口⑤口口 |⑥-⑦-|
27
⑧口口④ |----|
⑦口口③ |----|
⑥口口② |①②③④|
⑤口口① |⑤⑥⑦⑧|
28
⑥口口④ |①---|
口①①口 |②---|
口①①口 |③--④|
⑤③口② |⑤-⑥-|
29
口口①口 |①--②|
⑤口④口 |③-④-|
口②口口 |⑤---|
⑥⑤口③ |⑥---|
30
口①口① |①---|
口口③口 |②-③-|
口口②口
口口口口

④⑥口口
口⑦口口
口口口口 |④-⑤-|
口⑤口⑤ |⑥-⑦-|
31
⑤口口① |①-②-|
口⑥②口 |③-④-|
⑦③口口 |⑤-⑥-|
④⑧口⑤ |⑦-⑧-|
32
口①①口 |①---|
①口⑥口 |②---|
口③④口 |③--④|
⑤口口② |⑤-⑥-|
33
①⑥⑤口 |①--②|
②口口口 |③-④-|
⑥口⑥口 |⑤---|
口④口③ |⑥---|
34
口⑦口① |①---|
④①③⑥ |②-③-|
⑤②④① |④-⑤-|
④口口口 |⑥-⑦-|
35
①口①口 |①--②|
③⑤②口 |--③-|
④①③⑤ |④---|
③②④② |⑤---|
36
①②①② |①---|
口口③④ |②---|
③④⑥⑤ |③-④-|
⑥⑤口口 |⑤-⑥-|
37
①②③⑦ |--①②|
口⑦口口 |③-④⑤|
口口口⑥ |⑥---|
口⑥⑤④ |⑦---|
38
口口口口 |①---|
口口口口 |②---|
①口①口
口②口②

口口③④
③④⑥⑤
⑥⑤口口 |③-④-|
口口口口 |⑤-⑥-|
39
④⑤⑥口 |--①②|
⑩⑪口口 |③-④⑤|
口⑨⑧⑦ |⑥-⑦⑧|
口③②① |⑨-⑩⑪|
40
③⑥②口 |①---|
④⑤①口 |②---|
①口③⑥ |③-④-|
口②④⑤ |⑤-⑥-|
41
口口口⑥ |--①②|
口⑥⑤④ |③-④⑤|
①②③⑦ |⑥---|
口⑦口口 |⑦---|
42
①口①口 |①---|
口口口口 |②---|
口口口口
②口②口

⑥③⑥③
⑤口⑤口
口④口④ |③-④-|
口口口口 |⑤-⑥-|
43
口⑤口④ |--①②|
⑦口⑥① |③-④⑤|
②⑨口⑧ |⑥⑦⑧⑨|
口口⑩③ |⑩---|
44
②口①口 |①-②-|
③①口① |--③-|
⑤⑥①口 |④-⑤⑥|
⑦口⑦④ |--⑦-|
45
口①②口 |①---|
口口④口 |②③④⑤|
口⑤口口
口③口口

口⑪口⑧
口⑬口⑥
⑦口⑫口 |⑥⑦⑧⑨|
⑨口⑩口 |⑩⑪⑫⑬|
46
②口口口 |①-②-|
④口④口 |③-④-|
口口口口
口③口①

口口口⑤
口口口口
⑥⑦口口 |⑤-⑥⑦|
⑧口口⑧ |--⑧-|
47
口⑤④口 |①---|
口⑦⑥① |②③④⑤|
⑨⑬⑫⑧ |⑥⑦⑧⑨|
⑪③②⑩ |⑩⑪⑫⑬|
48
②⑦口① |①-②-|
④④口① |③-④-|
⑥口口⑧ |⑤-⑥⑦|
⑧口③⑤ |--⑧-|
49
③口①② |①---|
口⑤④口 |②③④⑤|
口口口口
口口口口

口⑪⑩口
⑬口口⑫
口⑦⑥口 |⑥⑦⑧⑨|
⑨口口⑧ |⑩⑪⑫⑬|
50
④口口④ |①---|
口③③口 |②-③-|
口⑥⑥① |④--⑤|
⑤②②⑤ |--⑥-|
51
口①①口 |①---|
口口口口 |----|
口口口口 |----|
②口口口 |②---|
52
①口口口 |①---|
口口口口 |----|
口口口口
口口口口

②③④⑤
口口口口
口口口口 |----|
口口口口 |②③④⑤|
53
⑤口口口 |①--②|
口③⑥口 |③-④-|
①①④④ |⑤--⑥|
⑦②口口 |--⑦-|
54
口④①⑥ |-①--|
⑤②口口 |②-③-|
①口③④ |④-⑤-|
⑥口⑤口 |-⑥--|
55
口⑥③口 |①--②|
④④①① |③-④-|
口口②口 |⑤--⑥|
⑦口口⑤ |--⑦-|
56
⑥⑦⑧⑨ |-①--|
④③④① |②-③-|
口口②⑤ |④-⑤-|
口①⑥⑤ |⑥⑦⑧⑨|
57
⑤口口口 |①--②|
口③⑥口 |③-④-|
①①④④ |⑤--⑥|
⑦②口口 |--⑦-|
58
口④①⑥ |-①--|
⑤②口口 |②-③-|
①口③④ |④-⑤-|
⑥口⑤口 |-⑥--|
59
口⑥③口 |①--②|
④④①① |③-④-|
口口②口 |⑤--⑥|
⑦口口⑤ |--⑦-|
60
⑥⑦⑧⑨ |-①--|
④③④① |②-③-|
口口②⑤ |④-⑤-|
口①⑥⑤ |⑥⑦⑧⑨|
61
口⑦口⑦ |①--②|
口⑤③④ |③-④-|
①②⑤⑥ |⑤--⑥|
⑤①⑥④ |--⑦-|
62
①⑤④口 |-①--|
口④③④ |②-③-|
⑤口⑥口 |④-⑤-|
口②口口 |-⑥--|
63
②④口⑤ |①--②|
①⑥⑤口 |③-④-|
口③⑦⑤ |⑤--⑥|
⑦口①⑥ |--⑦-|
64
③②③口 |-①--|
①口口口 |②-③-|
口①口②
口口①口

口口口口
口⑤口④
口口⑥口 |④-⑤-|
⑥⑦⑧⑨ |⑥⑦⑧⑨|
65
⑤①⑤① |①--②|
①⑤①⑤ |③-④-|
②③⑦④ |⑤--⑥|
⑧口口⑥ |⑦-⑧-|
66
口①口① |①--②|
①口①口 |③-④-|
口④口②
口口③口

⑤口⑤口
口⑤⑦⑤
口口口口 |⑤--⑥|
⑧口口⑥ |⑦-⑧-|
67
⑤①⑤① |①--②|
④口⑥③ |③-④-|
①⑤①⑤ |⑤--⑥|
口⑧②⑦ |⑦-⑧-|
68
⑤①⑤① |①--②|
⑧口⑥③ |③-④-|
①⑤①⑤ |⑤--⑥|
④口②⑦ |⑦-⑧-|
69
口①口① |①---|
口口口口 |----|
①口①口 |----|
口口口口 |----|
70
口口①口 |----|
口口口口 |----|
口①口① |----|
口口①口 |①---|
71
①⑥口口 |①-②-|
⑥口②④ |--③-|
③口④⑦ |④-⑤⑥|
口③⑦⑤ |--⑦-|
72
①⑥②③ |①-②③|
口①③⑤ |--④-|
④口⑤口 |⑤-⑥-|
口④⑦口 |--⑦-|
73
口口口② |①-②③|
口口③口 |④-⑤-|
口④口⑤
①口口口

口口⑧⑨
口口口⑦
口口口口 |⑥-⑦-|
口口口⑥ |⑧-⑨-|
74
①⑤口口 |①-②-|
③口口③ |--③-|
口口口口 |④-⑤-|
⑥②④口 |--⑥-|
75
⑤口口⑥ |①-②③|
②③④口 |④-⑤-|
口⑦口口 |⑥-⑦-|
⑨①口⑧ |⑧-⑨-|
76
⑤⑥⑦口 |①-②③|
⑩④③② |④-⑤⑥|
口口口⑨ |⑦-⑧-|
口⑧①口 |⑨-⑩-|
77
口④⑤① |①-②-|
口⑥口⑧ |③-④-|
⑦口③口 |⑤⑥⑦-|
口⑨口② |⑧-⑨-|
78
②⑥⑪⑦ |①-②-|
⑩⑪③⑪ |③④⑤⑥|
⑧口⑪⑤ |⑦⑧⑨⑩|
④口⑨① |⑪---|
79
②③口③ |①--②|
口口①口 |--③-|
③②口②
口①口①

⑥口口口
④⑤口⑥
口口④口 |-④--|
⑤口⑤⑥ |⑤--⑥|
80
口①口① |--①-|
口口口口 |-②--|
①口口②
口②口口

④口④口
口③⑤口
⑤④口口 |③--④|
③口③⑤ |--⑤-|
81
口②⑤⑤ |①-②-|
②③⑥① |--③-|
口口①口 |④-⑤-|
④④口口 |--⑥-|
82
①⑥口口 |①-②③|
口③口② |--④-|
④口口口 |⑤-⑥-|
口④⑦⑤ |--⑦-|
83
③口②口 |①②③④|
口⑦⑥口 |⑤⑥⑦⑧|
口①口④
⑤口口⑧

口⑮⑭⑩
⑪口口⑯
⑬口口口 |⑨⑩⑪⑫|
口⑨⑫口 |⑬⑭⑮⑯|
84
③口口⑥ |①②③④|
口⑦②口 |⑤⑥⑦⑧|
口⑤口⑧
①口口④

口⑪口口
⑩口⑫⑫
口口口口 |⑨-⑩⑪|
口⑨口口 |--⑫-|
85
①口①口 |①-②③|
口③口口 |--④-|
②①口口
口④④口

口口口口
⑤口口⑦
口⑧⑤口 |⑤-⑥⑦|
⑤口口⑥ |--⑧-|
86
①⑤③① |①-②③|
口④②口 |-④⑤-|
⑤口口③
口口口口

⑩口口⑩
口口口口
口⑩⑩口 |⑥⑦⑧⑨|
⑥⑦⑧⑨ |⑩---|

不確定度: 0

最終更新:2016年04月18日 01:19