アットウィキロゴ

M.A.Y.U.
Ryu☆ feat.MAYU

EXTREME

Level: 8
BPM: 128
Notes: 544

1
口口口口 |----|
口口口口 |----|
口口口口 |----|
口口口口 |----|
2
口口口① |①-②-|
口③口| |③-④-|
②口口|
口④口∧

口口口口
⑤口口口
⑧⑥口口 |⑤-⑥-|
⑦口口口 |⑦-⑧-|
3
口口①① |①-②-|
③口|口 |③-④-|
口④|口
口②∧口

口口口口
⑧⑥口口
⑦口口口 |⑤-⑥-|
⑤口口口 |⑦-⑧-|
4
口①①口 |①-②-|
口|④③ |③-④-|
口|口口
口∧口②

口口口口
口口口口
口口⑥⑤ |⑤-⑥-|
口口⑦⑧ |⑦-⑧-|
5
口口②③ |①-②-|
口口⑧① |③-④-|
口口④⑥ |⑤-⑥-|
口口⑦⑤ |⑦-⑧-|
6
①①口口 |①-②-|
|口口口 |③-④-|
|口③口
∧口④②

口口口⑤
口口⑧口
口口口⑥ |⑤-⑥-|
口口口⑦ |⑦-⑧-|
7
①①口⑤ |①-②-|
口|⑧③ |③-④-|
口|④⑥ |⑤-⑥-|
口∧②⑦ |⑦-⑧-|
8
口①①口 |①-②-|
③口|口 |③-④-|
口口|口
②④∧口

口口口口
口⑤口口
⑧⑥口口 |⑤-⑥-|
⑦口口口 |⑦-⑧-|
9
⑧口口口 |①-②-|
②③口口 |③-④-|
⑤⑥口口 |⑤-⑥-|
④①⑦口 |⑦-⑧-|
10
口①①③ |①---|
①口口② |----|
⑧口口口 |②③-④|
④⑥⑦⑤ |⑤⑥⑦⑧|
11
口口口口 |①②③-|
②口口③ |----|
口口口① |④---|
④口口口 |----|
12
口口口口 |①---|
口⑥口口 |----|
口⑤④口 |②-③-|
②口③① |④⑤-⑥|
13
口口口口 |①---|
口口①口 |----|
口口口口
口口口口

口口口口
口口⑤口
口④③口 |②--③|
②口口口 |④-⑤-|
14
口①口口 |①---|
①口口口 |----|
口口口口
口口口口

口⑧口口
口口⑦口
口⑥口③ |②③-④|
口④⑤② |⑤⑥⑦⑧|
15
口口①口 |①-②③|
②③口口 |----|
口口口口 |④---|
④口口口 |----|
16
①③③① |①-②-|
⑤⑦⑦⑤ |③-④-|
口②口口 |⑤-⑥-|
⑥口⑧④ |⑦-⑧-|
17
②②①① |①-②-|
④口口③ |③-④-|
④口口③
口口口口

口口⑨⑨
口⑥⑤口
口⑧⑦口 |⑤⑥⑦⑧|
⑨⑨口口 |⑨---|
18
口口口口 |①-|
∨口口口
①口口口
口口口口

口口口口 |-②|
口口∨口
②口②口
口口口口

口口口口
口∨口口 |--③-|
口③③口
口口口口

口口口④
口口口⑤
口④口⑥ |----|
口口口口 |④⑤⑥-|
19
①<口口 |①-|
口口口口
口口口口
口口口口

②口口口 |②③|
口口口口
口口口口
口口>③

口口口口
⑤<口口 |-④⑤-|
口口口口
口口口④

口口口口
口⑧⑦⑥
口⑪⑩⑨ |-⑥⑦⑧|
口口口⑫ |⑨⑩⑪⑫|
20
口口口口 |①---|
①口口口 |----|
口口口口 |----|
①<口口 |----|
21
口口口口 |----|
口口口口 |----|
口口口口 |----|
①口口口 |①---|
22
口口口口 |①-|
∨口口口
①口口口
口口口口

口口口口 |-②|
口口∨口
②口②口
口口口口

口口口口
口∨口口 |--③-|
口③③口
口口口口

口口口④
口口口⑤
口④口⑥ |----|
口口口口 |④⑤⑥-|
23
①<口口 |①-|
口口口口
口口口口
口口口口

②口口口 |②③|
口口口口
口口口口
口口>③

口口口口
⑤<口口 |-④⑤-|
口口口口
口口口④

口口口口
口⑧⑦⑥
口⑪⑩⑨ |-⑥⑦⑧|
口口口⑫ |⑨⑩⑪⑫|
24
口口口口 |①---|
①口口口 |----|
口口口口 |----|
①<口口 |----|
25
口口口口 |----|
口口口口 |----|
口口口口 |----|
①口口口 |①---|
26
口口口口 |①-|
∨口口口
①口口口
口口口口

口口口口 |-②|
口口∨口
②口②口
口口口口

口口口口
口∨口口 |--③-|
口③③口
口口口口

口口④⑤
口口口⑥
口⑤口⑦ |-④--|
口口口口 |⑤⑥⑦-|
27
①<口口 |①-|
口口口口
口口口口
口口口口

②口口口 |②③|
口口口口
口口口口
口口>③

口口口口
⑤<口口 |-④⑤-|
口口口口
口口口④

口口口口
口⑧⑦⑥
口⑪⑩⑨ |-⑥⑦⑧|
口口口⑫ |⑨⑩⑪⑫|
28
口口口① |①--②|
①口口② |--③-|
口⑥口③ |-④--|
①<⑤④ |⑤-⑥-|
29
口口①口 |①--②|
口口②口 |--③-|
口口③口
口口口口

口⑧⑦⑤
口口口④
口口口⑥ |-④⑤-|
⑥口口口 |⑥-⑦⑧|
30
口口口口 |①--〇|
∨口口口
①口口口
口口口口

口口口口 |-②|
口口∨口
②口②口
口口口口

口口口口
口∨口口 |--③-|
口③③口
口口口口

口口④⑤
口口口⑥
口⑤口⑦ |-④--|
口口口口 |⑤⑥⑦-|
31
①<口口 |①-|
口口口口
口口口口
口口口口

②口口口 |②③|
口口口口
口口口口
口口>③

口口口口
⑤<口口 |-④⑤-|
口口口口
口口口④

口口口口
口⑧⑦⑥
口⑪⑩⑨ |-⑥⑦⑧|
口口口⑫ |⑨⑩⑪⑫|
32
口③④口 |①-②-|
①口口口 |③-④-|
口口口口
口①②口

口口口口
⑥口口⑧
⑤口口⑦ |⑤-⑥-|
口口口口 |⑦-⑧-|
33
口①④口 |①②③④|
口③②口 |⑤⑥⑦⑧|
口⑤⑧口
口⑦⑥口

口口口口
口⑨⑨口
⑨口口⑨ |----|
口口口口 |⑨---|
34
①①①① |①---|
口口口口 |②③④⑤|
口⑤④口
口③②口

⑦⑦口口
口口⑥口
口口口⑨ |⑥-⑦-|
⑧口口口 |⑧-⑨-|
35
口口①① |①-②-|
口口口③ |③-④⑤|
④⑤口口
口口②②

⑦⑦口口
⑨⑨口口
口口⑥口 |⑥-⑦-|
口口⑧⑧ |⑧-⑨-|
36
口口①① |①---|
口口①① |②③④⑤|
口④⑤口
口②③口

⑨⑦⑦口
⑨⑥口口
口口口口 |⑥-⑦-|
口口口⑧ |⑧-⑨-|
37
口③④② |①-②-|
口⑤⑥② |③④⑤⑥|
⑩⑦⑧⑪ |⑦⑧⑨-|
①⑨口口 |⑩-⑪-|
38
①①①① |①---|
口口口口 |②③④⑤|
口⑤④口
口③②口

⑦⑦⑨口
口口⑥口
⑧口口口 |⑥-⑦-|
口口口口 |⑧-⑨-|
39
口④口口 |①-②-|
②②口口 |③-④-|
口口①①
③③口口

⑦口口⑧
⑦口口⑧
口⑤口⑥ |⑤-⑥-|
口口口⑥ |⑦-⑧-|
40
⑤口口口 |①---|
口④口口 |②③④⑤|
口口③口
口①①②

口口⑨⑦
口口⑧⑥
口口⑨⑦ |⑥-⑦-|
口口口口 |⑧-⑨-|
41
④②⑧③ |①-②-|
口①口⑧ |③④⑤⑥|
口②口⑦ |⑦---|
⑥口⑦⑤ |⑧---|
42
口①口① |①---|
①口①口 |②③④⑤|
④口口⑤
②口口③

⑦口口口
⑧⑦口口
口⑩⑨口 |⑥-⑦-|
口⑥口口 |⑧-⑨⑩|
43
口口口① |①-②-|
口⑤口① |③-④⑤|
④口口口
口②②③

⑨⑧⑥⑦
口口口⑦
口口⑧⑨ |⑥-⑦-|
口口口口 |⑧-⑨-|
44
⑨口⑦口 |①---|
①⑦①② |②③④⑤|
③④⑤⑥ |⑥-⑦-|
①⑧①⑨ |⑧-⑨-|
45
口⑥③① |①-②-|
口④⑤口 |③④⑤⑥|
②口口口
口口②口

⑩口口⑩
口口口口
口⑨⑧⑦ |⑦⑧⑨-|
口口口口 |⑩---|
46
口口①口 |①---|
口②①③ |②③④⑤|
①口④口
①⑤口口

口⑦⑦口
⑧口⑨口
⑦⑩口⑦ |⑥-⑦-|
口口口⑥ |⑧-⑨⑩|
47
口⑤④② |①-②-|
口口口② |③-④⑤|
口口口口
③口①口

⑦口口⑨
口⑧⑥口
口口⑧口 |⑥-⑦-|
⑨口口⑦ |⑧-⑨-|
48
口①②口 |①---|
①③口口 |②③④⑤|
口口④①
口⑤①口

⑧口口⑥
口口口口
口⑨口⑦ |⑥-⑦-|
⑨口⑦口 |⑧-⑨-|
49
④口①③ |①-②-|
口⑤⑥口 |③④⑤⑥|
口口②口
口②口口

口口口口
⑩口口⑩
⑦⑩⑩口 |⑦⑧⑨-|
⑦口⑨⑧ |⑩---|
50
①<口① |①-|
口口口|
口口口∧
口口口口

②口口口 |②③|
口③<口
口口口口
口口口口

口⑤口口
口④口口 |-④⑤-|
>⑥口口 |⑥---|
口口口口

口口口口
口口口口
口⑦口口
口口口口 |⑦---|
51
①<①① |①-|
口口|口
口口∧口
口口口口

②口口口 |②③|
>③口口
口口口口
口口口口

口⑤口口
口④口口 |-④⑤-|
>⑥口口 |⑥---|
口口口口 |----|
52
口>①① |①---|
口口②口 |----|
口①口口 |②---|
>―①口 |----|
53
口口口口 |①--②|
口口②① |--③-|
口口④③ |④---|
口口⑤口 |⑤---|
54
①<口① |①-|
口口口①
口口口|
口口口∧

②口口口 |②③|
>③口口
口口口口
口口口口

口⑤口口
口④口口 |-④⑤-|
>⑥口口 |⑥---|
口口口口

口口口口
口口口口
口⑦口口
口口口口 |⑦---|
55
①<口口 |①-|
口口①①
口口|口
口口∧口

②口口口 |②③|
>③口口
口口口口
口口口口

口⑤口口
口④口口 |-④⑤-|
>⑥口口 |⑥---|
口口口口 |----|
56
>――① |①---|
②口①口 |②③④-|
③①口口
④口口口

口口口口
口⑤⑥口
口⑦口口 |⑤--⑥|
口口口口 |--⑦-|
57
①③口⑤ |①--②|
口④⑪口 |--③④|
②⑩口口 |⑤⑥⑦⑧|
⑥⑦⑧⑨ |⑨-⑩⑪|
58
口①口口 |①---|
口口口口 |----|
口口口口 |----|
口口口口 |----|

不確定度: 0

最終更新:2016年04月11日 22:39