アットウィキロゴ

We're so Happy [2]
Ryu☆

ADVANCED

Level: 8
BPM: 185
Notes: 624

1
口口口口 |----|
口口口口 |----|
口口口口 |----|
口口口口 |----|
2
①口①口 |①---|
口①口① |----|
口口口口 |----|
口口口口 |----|
3
口口口口 |①---|
口口口口 |----|
①口①口 |----|
口①口① |----|
4
口①口① |①---|
①口①口 |----|
口口口口 |----|
口口口口 |----|
5
口口口口 |①---|
口口口口 |----|
口①口① |----|
①口①口 |----|
6
⑥<⑤④ |①-②-|
⑥<口口 |③-④-|
③口口口 |--⑤-|
①口口② |--⑥-|
7
①口口口 |----|
①口口口 |----|
口口口口 |--①-|
口口口口 |----|
8
⑤<④③ |①-②-|
⑤<口口 |--③-|
口口口口 |--④-|
②口口① |--⑤-|
9
①口口口 |----|
①口口口 |--①-|
口口口口 |----|
口口口口 |----|
10
口④⑤口 |①-②-|
口④⑤口 |③-④-|
口口口口 |--⑤-|
口①②③ |----|
11
口④口口 |①-②-|
③口口口 |③-④-|
②口口口
①口口口

口口口口
口⑤口口
口口口口 |--⑤-|
>⑥口口 |--⑥-|
12
口口④口 |①-②-|
口口口③ |③-④-|
口口口②
口口口①

口口口口
口口⑤口
口口口口 |--⑤-|
口⑤⑥< |--⑥-|
13
口口口口 |----|
口口口口 |----|
③口口口 |--①-|
①②③口 |②-③-|
14
口口口口 |①-②-|
口①③口 |③-④-|
口②④口 |--⑤-|
口⑦⑥⑤ |⑥-⑦-|
15
口③口口 |①-②-|
①④口口 |--③-|
②口口口 |--④-|
>⑤口口 |--⑤-|
16
口口①口 |----|
口口②口 |--①-|
口口口口 |--②-|
口②③< |--③-|
17
口口口口 |----|
口口口口 |----|
口口口口 |----|
口口口口 |----|
18
②口口口 |①---|
口口④口 |--②-|
口③口⑤ |--③-|
口①①口 |④-⑤-|
19
口④口口 |①-②-|
③口口口 |③-④-|
②口口口
①口口口

口口口口
口⑤口口
口口口口 |--⑤-|
>⑥口口 |--⑥-|
20
口口④口 |①-②-|
口口口③ |③-④-|
口口口②
口口口①

口口口口
口口⑤口
口口口口 |--⑤-|
口⑤⑥< |--⑥-|
21
口③口口 |①-②-|
①④口口 |--③-|
②口口口 |--④-|
>⑤④口 |--⑤-|
22
口口①口 |----|
口口②口 |--①-|
口口口口 |--②-|
口①③< |--③-|
23
口口口口 |----|
口口口口 |----|
口口口口 |----|
口口①口 |--①-|
24
⑤口④② |①-②-|
口③口口 |--③-|
⑤口④② |--④-|
①③口口 |--⑤-|
25
⑥口口⑤ |--①-|
⑧②①⑦ |--②-|
口④③口 |③-④-|
口②①口 |⑤⑥⑦⑧|
26
口口口口 |①-②-|
口③④口 |③-④-|
⑤口口④ |--⑤-|
口⑤②① |----|
27
①②口口 |①-②-|
口口⑤口 |③-④-|
口⑥③④ |--⑤-|
口口口口 |--⑥-|
28
口口口口 |--①-|
口①口口 |--②-|
③口口口 |--③-|
口④②口 |④---|
29
口口③④ |①-②-|
①②口口 |③-④-|
口口⑤口 |--⑤-|
口⑥口口 |--⑥-|
30
口口口口 |--①-|
口①口口 |--②-|
口③口口 |--③-|
④口②口 |④---|
31
①②口口 |①-②-|
口口⑤口 |③-④-|
口⑥③④ |--⑤-|
口口口口 |--⑥-|
32
口口口口 |--①-|
口①口口 |--②-|
③口口口 |--③-|
口④②口 |④---|
33
口口口口 |①-②-|
①②⑤口 |③-④-|
口⑥③④ |--⑤-|
口口口口 |--⑥-|
34
③①口口 |--①-|
口④口口 |--②-|
口口②口 |--③-|
口口口口 |④---|
35
⑤口口口 |①-②-|
⑤口口④ |③-④-|
①②⑥④ |--⑤-|
口口③⑥ |--⑥-|
36
⑤口口口 |①-②-|
⑤口口④ |③-④-|
①②⑥④ |--⑤-|
口口③⑥ |--⑥-|
37
⑤口口口 |①-②-|
⑤口口④ |③-④-|
①②⑥④ |--⑤-|
口口③⑥ |--⑥-|
38
⑤口口口 |①-②-|
⑤口口④ |③-④-|
①②⑥④ |--⑤-|
口口③⑥ |--⑥-|
39
口口⑧⑦ |①-②-|
口口④③ |③-④-|
⑤⑥口口 |⑤-⑥-|
①②口口 |⑦-⑧-|
40
口④④口 |①---|
③口口② |②---|
口③②口 |③---|
①①①① |④---|
41
③<>③ |①---|
②②②② |--②-|
③<>③ |----|
①①①① |③---|
42
①口口① |----|
口口口口 |----|
①口口① |----|
口口口口 |①---|
43
⑤口口⑤ |①-②-|
④④④④ |③-④-|
⑤③口⑤ |--⑤-|
口①②口 |----|
44
口口口⑥ |①②③---|
口口⑥④ |④---|
口口④⑤ |⑤---|
①②⑤③ |⑥---|
45
口④口口 |①-②-|
③口口口 |③-④-|
②口口口
①口口口

口口口口
口⑤口口
口口口口 |--⑤-|
>⑥口口 |--⑥-|
46
口口④口 |①-②-|
口口口③ |③-④-|
口口口②
口口口①

口口口口
口口⑤口
口口口口 |--⑤-|
口⑤⑥< |--⑥-|
47
口③口口 |①-②-|
①④口口 |--③-|
②口口口 |--④-|
>⑤⑤口 |--⑤-|
48
口口③口 |①-②-|
口口④① |--③-|
口口口② |--④-|
口④⑤< |--⑤-|
49
口④口口 |①-②-|
③口口口 |③-④-|
②口口口
①口口口

口口口口
口⑤口口
口口口口 |--⑤-|
>⑥⑥口 |--⑥-|
50
口口口① |----|
口口口| |----|
口口口∧ |①---|
口①口口 |----|
51
①口口① |①---|
|口口口 |----|
∧口口口 |----|
口口口口 |----|
52
①口口口 |----|
口口口口 |----|
口口口口 |----|
口口口口 |①---|
53
口④口口 |①-②-|
③口口口 |③-④-|
②口口口
①口口口

口口口口
口⑤口口
口口口口 |--⑤-|
>⑥口口 |--⑥-|
54
口口④口 |①-②-|
口口口③ |③-④-|
口口口②
口口口①

口口口口
口口⑤口
口口口口 |--⑤-|
口⑤⑥< |--⑥-|
55
口③口口 |①-②-|
①④口口 |--③-|
②口口口 |--④-|
>⑤⑤口 |--⑤-|
56
口口③口 |①-②-|
口口④① |--③-|
口口口② |--④-|
口④⑤< |--⑤-|
57
口口口口 |----|
口口口口 |----|
口口口口 |----|
口口①口 |--①-|
58
口②②口 |----|
口①①口 |①---|
③③③③ |②---|
口口口口 |③---|
59
③口口③ |①---|
①口口① |--②-|
③口口③ |----|
①②②① |③---|
60
口口口口 |①②③---|
①②口③ |④---|
口⑥⑥口 |⑤---|
④④⑤⑤ |⑥---|
61
②③口口 |①-②③|
⑤①①口 |-④-⑤|
口口⑥④ |--⑥-|
口⑦⑧口 |⑦-⑧-|
62
口口③② |①-②③|
口①口⑤ |-④-⑤|
④口口口
口口口口

口口口口
⑥⑨口口
口口⑦口 |-⑥-⑦|
口⑧口口 |⑧-⑨-|
63
②③口口 |①-②③|
⑤口①口 |-④-⑤|
口口⑥④ |--⑥-|
口⑦⑧口 |⑦-⑧-|
64
口口③② |①-②③|
⑥①口⑤ |-④-⑤|
④口⑦口 |-⑥-⑦|
口⑧口口 |⑧---|
65
②③口口 |①-②③|
⑤①①口 |-④-⑤|
口口⑥④ |--⑥-|
口⑦⑧口 |⑦-⑧-|
66
口口③② |①-②③|
口①口⑤ |-④-⑤|
④口口口
口口口口

口口口口
⑥⑨口口
口口⑦口 |-⑥-⑦|
口⑧口口 |⑧-⑨-|
67
②③口口 |①-②③|
⑤口①口 |-④-⑤|
口口⑥④ |--⑥-|
口⑦⑧口 |⑦-⑧-|
68
口口③② |①-②③|
⑥①口⑤ |-④-⑤|
④⑧口口 |-⑥-⑦|
口口⑦口 |⑧---|
69
①②口口 |①-②-|
口口⑤口 |③-④-|
口⑥③④ |--⑤-|
口口口口 |--⑥-|
70
口口口口 |--①-|
口①口口 |--②-|
③口口口 |--③-|
口④②口 |④---|
71
口口③④ |①-②-|
①②口口 |③-④-|
口口⑤口 |--⑤-|
口⑥口口 |--⑥-|
72
口④⑤口 |①-②-|
口④⑤口 |③-④-|
②口口① |--⑤-|
口口口③ |----|
73
口口⑤④ |①-②-|
⑥⑥⑤④ |③-④-|
口口口口 |--⑤-|
①②③口 |--⑥-|
74
口口⑤④ |①-②-|
⑥⑥⑤④ |③-④-|
口口口口 |--⑤-|
①②③口 |--⑥-|
75
⑧口口口 |①-②-|
口口口④ |③-④-|
口⑦⑥⑤ |⑤-⑥-|
①②③口 |⑦-⑧-|
76
口口⑥⑧ |①-②-|
口④口⑦ |③-④-|
②口⑤口 |⑤-⑥-|
①③口口 |⑦-⑧-|
77
⑦⑦⑦⑦ |①-②-|
口③③口 |③---|
①口⑥② |④⑤⑥-|
④口口⑤ |⑦---|
78
⑦⑦⑦⑦ |①-②-|
口⑥⑥口 |③-④-|
①⑤⑤③ |⑤-⑥-|
口④②口 |⑦---|
79
口口⑥⑥ |①-②-|
①⑤口口 |③-④-|
②⑤口④ |--⑤-|
③口口④ |--⑥-|
80
口口⑥⑥ |①-②-|
①⑤口口 |③-④-|
②⑤口④ |--⑤-|
③口口④ |--⑥-|
81
口口口⑤ |①-②-|
②口⑤③ |--③-|
①④③口 |--④-|
口④口口 |--⑤-|
82
口口口⑤ |①-②-|
②口⑤③ |--③-|
①④③口 |--④-|
口④口口 |--⑤-|
83
口口⑥⑥ |①-②-|
①⑤∧∧ |③-④-|
②⑤口④ |--⑤-|
③口口④ |--⑥-|
84
口口①① |----|
①①口口 |----|
∧∧口口 |①---|
口口口口 |----|
85
口口口口 |①---|
①①①① |----|
口口∧∧ |----|
口口口口 |----|
86
口口口口 |----|
口口①① |----|
口口口口 |----|
口口口口 |①---|
87
口口⑧⑧ |①-②-|
①口⑦口 |③-④-|
②⑥口④ |⑤-⑥-|
③⑥⑤④ |⑦-⑧-|
88
口口⑧⑧ |①-②-|
①口⑦口 |③-④-|
②⑥口④ |⑤-⑥-|
③⑥⑤④ |⑦-⑧-|
89
③口⑦⑧ |①-②-|
②口⑧④ |③-④-|
①⑥④⑤ |⑤-⑥-|
口⑥口口 |⑦-⑧-|
90
③口⑦⑧ |①-②-|
②口⑧④ |③-④-|
①⑥④⑤ |⑤-⑥-|
口⑥口口 |⑦-⑧-|
91
②①口口 |①-②-|
⑥⑤口口 |③-④-|
口口③④ |⑤-⑥-|
口口⑦⑧ |⑦-⑧-|
92
口口⑧口 |①-②-|
口⑥⑦④ |③-④-|
②⑤口③ |⑤-⑥-|
①口口口 |⑦-⑧-|
93
③<>③ |①---|
②口口② |--②-|
③<>③ |----|
①口口① |③---|
94
口口口口 |----|
口口口口 |----|
口口口口 |----|
口口口口 |----|
95
①口口① |①---|
口①①口 |----|
①口口① |----|
口口口口 |----|

不確定度: 0

最終更新:2015年11月01日 02:38