アットウィキロゴ

glacia [2]
DJ TOTTO

BASIC

Level: 6
BPM: 186
Notes: 504

1
口口口口 |----|
口口口口 |----|
口①①口 |----|
口口口口 |①---|
2
①――< |①---|
口③②口 |②---|
口口口口 |----|
口口口口 |③---|
3
口口口口 |----|
口口口口 |①---|
口②①口 |----|
口口口口 |②---|
4
①口口口 |①---|
>――① |②---|
②口口③ |----|
口口口口 |③---|
5
口口口口 |----|
口口口口 |①---|
口口口口 |----|
①口口② |②---|
6
口③②口 |①---|
口口口① |②---|
①――< |----|
口口口口 |③---|
7
口口口口 |----|
口②①口 |①---|
口口口口 |----|
口口口口 |②---|
8
口口口口 |①---|
口口口口 |②---|
①②③口 |----|
口>―① |③-|

口口口口
口口口口
④―<口
口口口④ |④-|
9
口口口口 |----|
口口①口 |①---|
②口口口 |----|
口②②口 |②---|
10
①口口① |①---|
口②口口 |②---|
口④③口 |③---|
口口口口 |④---|
11
口口口口 |①---|
④口口③ |②---|
②口口① |③---|
口口口口 |④---|
12
口口口口 |①---|
口口口口 |②---|
口③④口 |③---|
口①②口 |④---|
13
口③④口 |①---|
口①②口 |②---|
口口口口 |③---|
口口口口 |④---|
14
口口口口 |①---|
②口口① |②---|
④口口③ |③---|
口口口口 |④---|
15
口口口口 |①---|
口口口口 |②---|
口口口口 |③---|
②④③① |④---|
16
口口口口 |①---|
口①②口 |②---|
口③④口 |③---|
口口口口 |④---|
17
口口口口 |①---|
口口口口 |②---|
③口口④ |③---|
①口口② |④---|
18
∨口口∨ |①---|
①口口① |----|
口口口口
口口口口

口口口口
②口口②
口口口口 |----|
口②②口 |--②-|
19
③口口③ |----|
口①口口 |①---|
口口②口 |②---|
口口口口 |③---|
20
口口口口 |①-②-|
口口④< |③-④-|
口③口口
①口口②

口口口口
>⑤⑤口
口口口口 |--⑤-|
口口口口

口口⑥<
口⑥口口
口口口口
口口口口 |--⑥-|
21
>①①口 |--①-|
口口口口
口口口口
口口口口

口②口口
口④④口 |--②-|
③口口② |③---|
口口口口 |④---|
22
⑧口口口 |①-②-|
口口口⑦ |③-④-|
④⑥口③ |⑤-⑥-|
②口⑤① |⑦-⑧-|
23
⑦⑥⑤④ |--①-|
口③口口 |②-③-|
口口②口 |④-⑤-|
口①口口 |⑥-⑦-|
24
口口口口 |--①-|
⑦口口口 |②-③-|
口⑥⑤④ |④-⑤-|
①②③口 |⑥-⑦-|
25
③口口口 |①-②-|
口①②④ |③-④-|
⑤口⑧口 |⑤-⑥-|
口⑦口⑥ |⑦-⑧-|
26
口①口口 |--①-|
⑥⑥②⑤ |②-③-|
口③口口 |④-⑤-|
口口④口 |--⑥-|
27
②⑦⑦① |--①-|
⑥口口⑥ |②-③-|
⑤口③⑤ |④-⑤-|
口④④口 |⑥-⑦-|
28
口口口口 |①-②-|
口口④< |③-④-|
口③口口
①口口②

口口口口
>⑤⑤口
口口口口 |--⑤-|
口口口口

口口⑥<
口⑥口口
口口口口
口口口口 |--⑥-|
29
>①①口 |--①-|
口口口口
口口口口
口口口口

口②口口
口④④口 |--②-|
③口口② |③---|
口口口口 |④---|
30
⑧口口口 |①-②-|
口口口⑦ |③-④-|
④⑥口③ |⑤-⑥-|
②口⑤① |⑦-⑧-|
31
⑦⑥⑤④ |--①-|
口③口口 |②-③-|
口口②口 |④-⑤-|
口①口口 |⑥-⑦-|
32
口口口口 |--①-|
⑦口口口 |②-③-|
口⑥⑤④ |④-⑤-|
①②③口 |⑥-⑦-|
33
③口口口 |①-②-|
口①②④ |③-④-|
⑤口⑧口 |⑤-⑥-|
口⑦口⑥ |⑦-⑧-|
34
⑦口口④ |--①-|
口③⑥口 |②-③-|
口⑤口② |④-⑤-|
①口口口 |⑥-⑦-|
35
口口口口 |--①-|
口⑦⑥口 |②-③-|
①⑤④② |④-⑤-|
口③口口 |⑥-⑦-|
36
∨口①口 |①---|
|口口口 |----|
②口口口 |②---|
口口口口 |----|
37
口口口口 |①---|
口∨口口 |----|
①|口口
口①口口

口口∨口
口口|口
口口②口 |②---|
口②口口 |----|
38
口口口∨ |①---|
口口口| |----|
口口①| |----|
口口口① |----|
39
口口口口 |----|
口口口口 |----|
口口口口 |----|
口口口口 |----|
40
口口口∨ |①---|
口口口| |----|
口口口② |②---|
口口口① |----|
41
口口口口 |①---|
口口∨口 |----|
口口|①
口口①口

口∨口口
口|口口
口②口口 |②---|
口口②口 |----|
42
口口口口 |①---|
∨口口口 |----|
|①口口
①口口口

口口口②
口口口口
口口口口 |----|
②口口口 |--②-|
43
口口口口 |--①-|
口①口口 |②-③-|
口口②口 |----|
口③口口 |----|
44
①⑤⑥② |①-②-|
①⑤⑥② |③-④-|
③⑦口④ |--⑤-|
③⑦口④ |⑥-⑦-|
45
口口口口 |①---|
口口口口 |----|
②口①口 |----|
②口①口 |--②-|
46
②④⑤① |①-②-|
②④⑤① |③---|
口⑥⑦③ |④-⑤-|
口⑥⑦③ |⑥-⑦-|
47
口口口口 |----|
口口口口 |----|
口口口口 |----|
口口口口 |----|
48
⑥②①⑤ |①-②-|
⑥②①⑤ |③-④-|
口④③⑦ |--⑤-|
口④③⑦ |⑥-⑦-|
49
口口口口 |①---|
口口口口 |----|
①口②口 |----|
①口②口 |--②-|
50
⑤①②④ |①-②-|
⑤①②④ |③---|
⑦③口⑥ |④-⑤-|
⑦③口⑥ |⑥-⑦-|
51
口口口口 |----|
口口口口 |----|
口口口口 |----|
口口口口 |----|
52
口∨∨口 |①---|
口||口 |----|
口||口 |----|
口①①口 |----|
53
口口口口 |----|
口口口口 |----|
口口口口 |----|
口口口口 |----|
54
∨口口∨ |①---|
|口口| |----|
①口口① |----|
口①①口 |----|
55
口口口口 |----|
口口口口 |----|
口口口口 |----|
口口口口 |----|
56
口口口口 |①---|
口∨∨口 |----|
①||① |----|
口①①口 |----|
57
∨口口∨ |①---|
|口口| |----|
①口口① |----|
口①①口 |----|
58
口∨∨口 |①---|
口①①口 |----|
①口口①
口口口口

②口口②
口②②口
口口口口 |----|
口口口口 |--②-|
59
口②②口 |--①-|
口口口口 |--②-|
口口口口 |--③-|
①③③① |----|
60
口⑦口口 |①-②-|
①口⑥② |③-④-|
③⑤口④ |--⑤-|
口口口口 |⑥-⑦-|
61
口口口口 |--①-|
口口口口 |②-③-|
⑦⑥⑤④ |④-⑤-|
口③②① |⑥-⑦-|
62
口口①口 |--①-|
口②③口 |②-③-|
口口④口 |--④-|
口⑤⑥口 |⑤-⑥-|
63
③④⑤⑥ |--①-|
①口口② |--②-|
口口口口 |③-④-|
口口口口 |⑤-⑥-|
64
口口口口 |--①-|
口③⑥口 |②-③-|
口⑤②口 |--④-|
口①④口 |⑤-⑥-|
65
①②③口 |--①-|
④⑤⑥⑦ |②-③-|
口口口口 |④-⑤-|
口口口口 |⑥-⑦-|
66
口口④口 |--①-|
③⑤口口 |②-③-|
口口⑥口 |④-⑤-|
①⑦⑦② |⑥-⑦-|
67
②口口② |--①-|
口③④口 |--②-|
①口口① |--③-|
口口口口 |④---|
68
口∨∨口 |①---|
口||口 |----|
口||口 |----|
口①①口 |----|
69
口口口口 |----|
①口口① |----|
口口口口 |----|
口①①口 |①---|
70
口口口口 |①-②-|
口口④< |③-④-|
口③口口
①口口②

口口口口
>⑤⑤口
口口口口 |--⑤-|
口口口口

口口⑥<
口⑥口口
口口口口
口口口口 |--⑥-|
71
>①①口 |--①-|
口口口口
口口口口
口口口口

口②口口
口④④口 |--②-|
③口口② |③---|
口口口口 |④---|
72
⑧口口口 |①-②-|
口口口⑦ |③-④-|
④⑥口③ |⑤-⑥-|
②口⑤① |⑦-⑧-|
73
⑦⑥⑤④ |--①-|
口③口口 |②-③-|
口口②口 |④-⑤-|
口①口口 |⑥-⑦-|
74
口口口口 |--①-|
⑦口口口 |②-③-|
口⑥⑤④ |④-⑤-|
①②③口 |⑥-⑦-|
75
③口口口 |①-②-|
口①②④ |③-④-|
⑤口⑧口 |⑤-⑥-|
口⑦口⑥ |⑦-⑧-|
76
口①口口 |--①-|
⑥⑥②⑤ |②-③-|
口③口口 |④-⑤-|
口口④口 |--⑥-|
77
②⑦⑦① |--①-|
⑥口口⑥ |②-③-|
⑤口③⑤ |④-⑤-|
口④④口 |⑥-⑦-|
78
口口口口 |①-②-|
口口④< |③-④-|
口③口口
①口口②

口口口口
>⑤⑤口
口口口口 |--⑤-|
口口口口

口口⑥<
口⑥口口
口口口口
口口口口 |--⑥-|
79
>①①口 |--①-|
口口口口
口口口口
口口口口

口②口口
口④④口 |--②-|
③口口② |③---|
口口口口 |④---|
80
⑧口口口 |①-②-|
口口口⑦ |③-④-|
④⑥口③ |⑤-⑥-|
②口⑤① |⑦-⑧-|
81
⑦⑥⑤④ |--①-|
口③口口 |②-③-|
口口②口 |④-⑤-|
口①口口 |⑥-⑦-|
82
口口口口 |--①-|
⑦口口口 |②-③-|
口⑥⑤④ |④-⑤-|
①②③口 |⑥-⑦-|
83
③口口口 |①-②-|
口①②④ |③-④-|
⑤口⑧口 |⑤-⑥-|
口⑦口⑥ |⑦-⑧-|
84
⑦口口④ |--①-|
口③⑥口 |②-③-|
口⑤口② |④-⑤-|
①口口口 |⑥-⑦-|
85
口口口口 |--①-|
口⑦⑥口 |②-③-|
①⑤④② |④-⑤-|
口③口口 |⑥-⑦-|
86
口口①口 |①---|
②口口口 |--②-|
口⑤④③ |--③-|
口口口口 |④-⑤-|
87
②口口② |--①-|
口口口口 |--②-|
口口口口
口①①口

口⑥⑥口
③||口
口||④ |③-④-|
⑤∧∧口 |⑤-⑥-|
88
口口口口 |----|
口口口口 |----|
口口口口 |----|
口口口口 |----|
89
口口口口 |----|
口口口口 |----|
口口口口 |----|
口口口口 |----|
90
口口口口 |----|
口口口口 |----|
口口口口 |----|
口口口口 |----|
91
口①①口 |①---|
口口口口 |----|
口口口口 |----|
口口口口 |----|

不確定度: 0

最終更新:2015年11月01日 03:10