アットウィキロゴ

水月鏡花のコノテーション
日向美ビタースイーツ♪

BASIC

Level: 3
BPM: 185
Notes: 310

1
口口口口 |----|
口口口口 |----|
口口口口 |----|
口口口口 |----|
2
口口口口 |----|
口口口口 |----|
口口口口 |----|
口口口口 |----|
3
∨口口口 |①---|
|口口口 |----|
|口口口 |----|
①口口口 |----|
4
口口口∨ |①---|
口口口| |----|
口口口| |----|
①口口① |----|
5
口∨口口 |①---|
口|口口 |----|
口|口口 |----|
口①口① |----|
6
口口∨口 |①---|
口口|口 |----|
口口|口 |----|
口①①口 |----|
7
①――< |①---|
口口口口 |----|
口口口口 |----|
口口①口 |----|
8
①口口口 |①---|
>――① |----|
口口口口 |----|
口口口口 |----|
9
口口口口 |①---|
口口口① |----|
①――< |----|
口口口口 |----|
10
口口口口 |①---|
口口口口 |----|
①口口口 |----|
>――① |----|
11
①口口口 |①---|
|口口口 |----|
|口口口 |----|
∧口口① |----|
12
①口口① |①---|
口口口| |----|
口口口| |----|
口口口∧ |----|
13
口①口① |①---|
口|口口 |----|
口|口口 |----|
口∧口口 |----|
14
口①①口 |①---|
口口|口 |----|
口口|口 |----|
口口∧口 |----|
15
口口①口 |①---|
①――< |----|
口口口口 |----|
口口口口 |----|
16
口口口口 |①---|
①口口口 |----|
>――① |----|
口口口口 |----|
17
①――< |①---|
口口口口 |----|
口口口① |----|
口口口口 |----|
18
①口口口 |①---|
口口口口 |----|
口口口口 |----|
>――① |----|
19
①①②② |①-②-|
③③④④ |--③-|
⑤⑤⑥⑥ |④---|
口口口① |⑤-⑥-|
20
口口口口 |--①-|
口口口口 |②---|
口口口口 |----|
①①②② |----|
21
口口口口 |①-②-|
⑤⑤⑥⑥ |--③-|
③③④④ |④---|
①①②② |⑤-⑥-|
22
①①②② |--①-|
口口口口 |②---|
口口口口 |----|
口口口口 |----|
23
①①②② |①-②-|
③③④④ |--③-|
⑤⑤⑥⑥ |④---|
口口口口 |⑤-⑥-|
24
口口口口 |--①-|
口口口口 |②---|
口口口口 |----|
①①②② |----|
25
口口口口 |①-②-|
⑤⑤⑥⑥ |--③-|
③③④④ |④---|
①①②② |⑤-⑥-|
26
①①②② |--①-|
口口口口 |②---|
口口口口 |----|
口口口口 |----|
27
口口口口 |①---|
口口口口 |----|
①口口① |----|
口口口口 |----|
28
口口口口 |①---|
①口口① |----|
口口口口 |----|
口口口口 |----|
29
口口口口 |①---|
口口口口 |----|
口①①口 |----|
口口口口 |----|
30
口口口口 |①---|
口①①口 |----|
口口口口 |----|
口口口口 |----|
31
口①口口 |①---|
口口①口 |----|
口口口口 |----|
口口口口 |----|
32
口口①口 |①---|
口①口口 |----|
口口口口 |----|
口口口口 |----|
33
口口口口 |①---|
口口口口 |----|
口①口口 |----|
口口①口 |----|
34
口③③口 |①---|
口①②口 |②---|
口口口口 |③---|
口口口口 |----|
35
口口口口 |①---|
①口②口 |②---|
口③口④ |③---|
口口口口 |④---|
36
口口口口 |①---|
口①口口 |----|
②口③口 |②---|
口口口口 |③---|
37
口口口口 |①---|
口口口口 |②---|
口③口④ |③---|
①口②口 |④---|
38
口口口② |①---|
①口口口 |----|
口口口口 |----|
口口口口 |②---|
39
口口①口 |①---|
②口口口 |----|
口口口口 |----|
口口口口 |②---|
40
口口口口 |①---|
口①口口 |----|
口②③口 |②---|
口口口口 |③---|
41
口口口口 |①---|
①口口口 |----|
口口口口 |②---|
口②口口 |----|
42
口口口口 |①---|
口口口口 |----|
口①口口 |②---|
口②③口 |③---|
43
口口口∨ |①---|
口口口| |----|
口口口|
口口口①

口口口口
口口口口
口口口口 |②---|
口口口② |----|
44
口口口口 |----|
口口口口 |----|
②口口口 |①---|
①口口口 |②---|
45
口口口口 |①---|
①――< |----|
口口口口
口口口口

口口口口
②口口口
口口口口 |②---|
口③口口 |③---|
46
口口口① |①---|
口口口② |②---|
口口口③ |③---|
口口口④ |④---|
47
口∨口口 |①---|
口|口口 |----|
口|口口
口①口口

口口口口
口口口口
口口口口 |②---|
口②口口 |----|
48
口口口口 |----|
口口口② |----|
口口口① |①---|
口口口口 |②---|
49
>――① |①---|
口口口口 |----|
口口口口
口口口口

口口口②
口口口口
口口口口 |②---|
③口口口 |③---|
50
口口口口 |①---|
④口口口 |②---|
②口口③ |③---|
口口口① |④---|
51
>③③< |①---|
口②②口 |--②-|
口①①口 |----|
口口口口 |③---|
52
口①①口 |----|
口口口口 |①---|
口口口口 |----|
口口口口 |----|
53
口口口口 |①---|
口①①口 |--②-|
口②②口 |----|
>③③< |③---|
54
口口口口 |----|
口口口口 |----|
口口口口 |①---|
口①①口 |----|
55
>③③< |①---|
口②②口 |--②-|
口①①口 |----|
口口口口 |③---|
56
口①①口 |----|
口口口口 |①---|
口口③口 |②---|
口口②口 |③---|
57
口口③口 |①---|
口②④口 |②---|
口①口口 |③---|
口口口口 |④---|
58
口①口口 |①---|
口②口口 |②---|
口口③口 |③---|
口口④口 |④---|
59
∨口口口 |①---|
|口口口 |----|
|口口口
①口口口

口口口口
口口口口
口口口口 |②---|
②③口口 |③---|
60
口口④口 |①---|
口口口③ |②---|
口口口② |③---|
口口①口 |④---|
61
口①口口 |①---|
②口口口 |②---|
③口口口 |③---|
口④口口 |④---|
62
口口④口 |①---|
口口口③ |②---|
口口口② |③---|
口口①口 |④---|
63
∨口口口 |①---|
|口口口 |----|
|口口口
①口口口

口口口口
口口口口
口口口口 |②---|
②③口口 |③---|
64
口口①口 |①---|
口口口② |②---|
口口口③ |③---|
口口④口 |④---|
65
口④口口 |①---|
③口口口 |②---|
②口口口 |③---|
口①口口 |④---|
66
口口①口 |①---|
口口∨② |②---|
口口|③ |③---|
口口④口 |④---|
67
口口口口 |①---|
口∨口口 |②---|
口|口口
口②①口

口口口口
口口口∨
口口口| |③---|
口③口④ |④---|
68
口口口口 |①---|
∨口口口 |②---|
|口口口
②口口①

口口口口
口口口口
口口④口 |③---|
③口口口 |④---|
69
口①②口 |①---|
口③④口 |②---|
口口口口 |③---|
口口口口 |④---|
70
口口口口 |①---|
口口口∨ |②---|
口①②| |③---|
③口口④ |④---|
71
口口口口 |①---|
口∨口口 |②---|
口|口口
口②口①

口口口口
口口∨口
口口|口 |③---|
口③④口 |④---|
72
口口口口 |①---|
∨口口口 |②---|
|口口口
②口①口

口口口口
口口口口
口口④口 |③---|
③口口口 |④---|
73
口①②口 |①---|
口③④口 |②---|
口口口口 |③---|
口口口口 |④---|
74
口口口口 |①---|
口口口口 |②---|
口①②口 |③---|
口③口口 |----|
75
①口口① |①---|
|口口| |----|
∧口口∧ |----|
口口口口 |----|
76
①口口① |①---|
口②②口 |----|
口③③口 |②---|
口口口口 |③---|
77
口口口口 |①---|
∨口口∨ |----|
|口口| |----|
①口口① |----|
78
口口口口 |①---|
口③③口 |----|
口②②口 |②---|
①口口① |③---|
79
①口口① |①---|
|口口| |----|
∧口口∧ |----|
口口口口 |----|
80
①②②① |①---|
口口口口 |----|
口口口口 |②---|
口口口口 |----|
81
∨口口∨ |①---|
|口口| |----|
①口口① |----|
口口口口 |----|
82
口口口口 |①---|
口③③口 |----|
①②②① |②---|
口口口口 |③---|
83
①口口① |①---|
|口口| |----|
∧口口∧ |----|
口口口口 |----|
84
①口口① |①---|
口②②口 |----|
口③③口 |②---|
口口口口 |③---|
85
口口口口 |①---|
∨口口∨ |----|
|口口| |----|
①口口① |----|
86
口口口口 |①---|
口③③口 |----|
口②②口 |②---|
①口口① |③---|
87
①口口① |①---|
|口口| |----|
∧口口∧ |----|
口口口口 |----|
88
①口口① |①---|
口口口口 |----|
口②②口 |②---|
口口口口 |----|
89
口口口口 |①---|
口①①口 |----|
口||口 |----|
口∧∧口 |----|
90
口口口口 |----|
口口口口 |----|
口口口口 |----|
口口口口 |----|
91
口口口口 |①---|
口①①口 |----|
口口口口 |----|
口口口口 |----|

不確定度: 0

最終更新:2015年11月07日 00:04