アットウィキロゴ

龍と少女とデコヒーレンス
黒猫ダンジョン

EXTREME

Level: 10
BPM: 165
Notes: 854

1
口口口口 |----|
口口口口 |----|
口口口口 |----|
口口口口 |----|
2
①口④⑤ |①---|
口口口口 |②③-④|
口⑦③口 |-⑤-⑥|
口⑥②口 |⑦---|
3
①口④⑤ |①---|
口口口口 |②③-④|
口⑦③口 |-⑤-⑥|
口⑥②口 |⑦---|
4
①口④⑤ |①---|
口口口口 |②③-④|
口⑦③口 |-⑤-⑥|
口⑥②口 |⑦---|
5
①口④⑤ |①---|
口口口口 |②③-④|
口⑦③口 |-⑤-⑥|
口⑥②口 |⑦---|
6
①⑥⑤⑦ |①-②-|
口口口口 |③④-⑤|
口⑨④① |⑥⑦-⑧|
②⑧③⑩ |⑨-⑩-|
7
①⑥⑤⑦ |①-②-|
口口口口 |③④-⑤|
口⑨④口 |⑥⑦-⑧|
②⑧③⑩ |⑨-⑩-|
8
②⑥⑤⑦ |①-②-|
口口口口 |③④-⑤|
口⑨④口 |⑥⑦-⑧|
①⑧③⑩ |⑨-⑩-|
9
②⑥⑤⑦ |①-②-|
口口口口 |③④-⑤|
口⑨④口 |⑥⑦-⑧|
①⑧③⑩ |⑨-⑩-|
10
①口④⑤ |①---|
口口口口 |②③-④|
口⑦③① |-⑤-⑥|
口⑥②口 |⑦---|
11
①口④⑤ |①---|
口口口口 |②③-④|
口⑦③口 |-⑤-⑥|
口⑥②口 |⑦---|
12
①口④⑤ |①---|
口口口口 |②③-④|
口⑦③口 |-⑤-⑥|
口⑥②口 |⑦---|
13
①口④⑤ |①---|
口口口口 |②③-④|
口⑦③口 |-⑤-⑥|
口⑥②口 |⑦---|
14
①口口口 |①---|
口口口口 |----|
口口口① |----|
口口口口 |----|
15
①口口口 |①---|
口口口口 |----|
口口口① |----|
口口口口 |----|
16
⑩②①⑨ |①②③④|
⑫④③⑪ |⑤⑥⑦⑧|
⑭⑥⑤⑬ |⑨⑩⑪⑫|
⑯⑧⑦⑮ |⑬⑭⑮⑯|
17
口①②口 |①-②-|
口③④口 |③-④-|
口②①口
口④③口

⑨⑨口⑤
口口口⑥
口口口⑦ |⑤⑥⑦⑧|
口口口⑧ |⑨---|
18
⑧⑩④⑩ |①-②③|
⑤口⑤⑦ |④⑤-⑥|
②③口口 |-⑦-⑧|
①⑨①⑥ |⑨-⑩-|
19
⑧⑩④⑩ |①-②③|
⑤口⑤⑦ |④⑤-⑥|
②③口口 |-⑦-⑧|
①⑨①⑥ |⑨-⑩-|
20
⑧⑩④⑩ |①-②③|
⑤口⑤⑦ |④⑤-⑥|
②③口口 |-⑦-⑧|
①⑨①⑥ |⑨-⑩-|
21
⑧⑩④⑩ |①-②③|
⑤口⑤⑦ |④⑤-⑥|
②③口口 |-⑦-⑧|
①⑨①⑥ |⑨-⑩-|
22
⑧⑩④⑩ |①-②③|
⑤口⑤⑦ |④⑤-⑥|
②③口口 |-⑦-⑧|
①⑨①⑥ |⑨-⑩-|
23
⑧⑩④⑩ |①-②③|
⑤口⑤⑦ |④⑤-⑥|
②③口口 |-⑦-⑧|
①⑨①⑥ |⑨-⑩-|
24
⑧⑩④⑩ |①-②③|
⑤口⑤⑦ |④⑤-⑥|
②③口口 |-⑦-⑧|
①⑨①⑥ |⑨-⑩-|
25
⑧⑩④⑩ |①-②③|
⑤口⑤⑦ |④⑤-⑥|
②③口口 |-⑦-⑧|
①⑨①⑥ |⑨-⑩-|
26
⑧口①⑨ |①-②-|
②⑩⑩⑦ |③④⑤⑥|
口④①⑥ |-⑦-⑧|
③口⑤⑦ |⑨-⑩-|
27
⑧口①⑨ |①-②-|
②⑩⑩⑦ |③④⑤⑥|
口④①⑥ |-⑦-⑧|
③口⑤⑦ |⑨-⑩-|
28
⑧口①⑨ |①-②-|
②⑩⑩⑦ |③④⑤⑥|
口④①⑥ |-⑦-⑧|
③口⑤⑦ |⑨-⑩-|
29
⑧口①⑨ |①-②-|
②⑩⑩⑦ |③④⑤⑥|
口④①⑥ |-⑦-⑧|
③口⑤⑦ |⑨-⑩-|
30
⑧口①⑨ |①-②-|
②⑩⑩⑦ |③④⑤⑥|
口④①⑥ |-⑦-⑧|
③口⑤⑦ |⑨-⑩-|
31
⑧口①⑨ |①-②-|
②⑩⑩⑦ |③④⑤⑥|
口④①⑥ |-⑦-⑧|
③口⑤⑦ |⑨-⑩-|
32
⑧④①口 |①②③④|
口口口⑦ |⑤⑥⑦⑧|
②口口⑤
口⑥③口

口口⑮⑪
口⑫口口
⑭⑯⑨口 |⑨⑩⑪⑫|
⑩口口⑬ |⑬⑭⑮⑯|
33
⑥②口口 |①②③④|
口口③⑦ |⑤⑥⑦⑧|
口口口⑤
⑧④①口

口⑭⑮⑪
口⑩口口
⑫⑯⑨口 |⑨⑩⑪⑫|
口口口⑬ |⑬⑭⑮⑯|
34
口口∨口 |①---|
口口|口 |----|
口口|口 |----|
口口①口 |----|
35
口口口口 |----|
口口口口 |----|
口口口口 |----|
口口口口 |----|
36
口∨口口 |①---|
口|口口 |----|
口|口口 |----|
口①①口 |----|
37
口口口口 |----|
口口口口 |----|
口口口口 |----|
口口口口 |----|
38
口口∨口 |①---|
口口|口 |----|
口口|口 |----|
口①①口 |----|
39
口口口口 |----|
口口口口 |----|
口口口口 |----|
口口口口 |----|
40
口∨口口 |①---|
口|口口 |----|
口|口口 |----|
口①①口 |----|
41
口口口口 |----|
口口口口 |----|
口口口口 |----|
口口口口 |----|
42
⑨口口④ |①②③-|
口③②① |④-⑤-|
⑥⑦⑧口 |⑥⑦⑧-|
⑩①口⑤ |⑨-⑩-|
43
⑨口口④ |①②③-|
口③②① |④-⑤-|
⑥⑦⑧口 |⑥⑦⑧-|
⑩口口⑤ |⑨-⑩-|
44
口口口① |①②③-|
口口④② |④-⑤-|
口口口③
口⑤口口

⑨口口⑩
口口口口
⑧⑦⑥口 |⑥⑦⑧-|
口口口口 |⑨-⑩-|
45
⑩⑤口口 |①②③-|
①②③⑥ |④-⑤-|
口口⑦口 |⑥⑦⑧-|
口⑧④⑨ |⑨-⑩-|
46
口⑤口口 |①②③-|
④⑤③口 |④-⑤-|
④②口口
①口口口

口口口⑨
口口口⑨
口⑩口口 |⑥⑦⑧-|
⑩⑧⑦⑥ |⑨-⑩-|
47
①口口口 |①②③-|
②口口口 |④-⑤-|
③口④④
口口⑤⑤

⑩⑨口口
口⑥⑦⑧
⑩⑨口口 |⑥⑦⑧-|
口口口口 |⑨-⑩-|
48
口口口口 |①②③-|
④④口口 |④-⑤-|
口口口⑤
①②③⑤

⑨⑨⑥口
口口⑦口
口口⑧口 |⑥⑦⑧-|
⑩⑩口口 |⑨-⑩-|
49
口口④④ |①②③-|
①口口口 |④-⑤-|
口②⑤⑤
口口③口

口口口口
口⑧⑦⑥
⑨⑩口口 |⑥⑦⑧-|
⑨⑩口口 |⑨-⑩-|
50
④②③① |①-②-③-|
⑧⑥⑦⑤ |④-⑤-⑥-|
口⑫⑪口 |⑦-⑧-⑨-|
口⑩⑨口 |⑩-⑪-⑫-|
51
④⑫⑪① |①-②-③-|
口⑥⑤口 |④-⑤-⑥-|
⑩口口⑨ |⑦-⑧-⑨-|
②⑧⑦③ |⑩-⑪-⑫-|
52
⑥口口⑤ |①-②-③-|
④口口③ |④-⑤-⑥-|
口②①口
口口口口

口口口口
口⑩⑨口
口⑫⑪口 |⑦-⑧-⑨-|
⑧口口⑦ |⑩-⑪-⑫-|
53
⑥⑩⑨⑤ |①-②-③-|
②口口① |④-⑤-⑥-|
⑧⑫⑪⑦ |⑦-⑧-⑨-|
口④③口 |⑩-⑪-⑫-|
54
⑫⑧⑦⑪ |①-②-③-|
④口口③ |④-⑤-⑥-|
⑩口口⑨ |⑦-⑧-⑨-|
②⑥⑤① |⑩-⑪-⑫-|
55
口⑩⑨口 |①-②-③-|
口⑥⑤口 |④-⑤-⑥-|
⑧②①⑦ |⑦-⑧-⑨-|
④⑫⑪③ |⑩-⑪-⑫-|
56
④⑫⑪③ |①-②-③-|
②⑥⑤① |④-⑤-⑥-|
口⑩⑨口 |⑦-⑧-⑨-|
⑧口口⑦ |⑩-⑪-⑫-|
57
口口口口 |①-②-③-|
②⑧⑦① |④-⑤-⑥-|
⑥⑩⑨⑤ |⑦-⑧-⑨-|
⑫④③⑪ |⑩-⑪-⑫-|
58
①②③④ |①②③④|
⑤⑥⑦⑧ |⑤⑥⑦⑧|
⑫⑪⑩⑨ |⑨⑩⑪⑫|
⑯⑮⑭⑬ |⑬⑭⑮⑯|
59
>――① |①---|
口口口口 |----|
口口口口 |----|
口口口口 |----|
60
口口口① |①②③④|
口口口口 |⑤⑥⑦⑧|
⑤⑥⑦⑧
①②③④

⑯⑮⑭⑬
⑫⑪⑩⑨
口口口口 |⑨⑩⑪⑫|
口口口口 |⑬⑭⑮⑯|
61
口口口口 |①---|
口口口口 |----|
口口口口 |----|
>――① |----|
62
⑦口⑧口 |①②③④|
⑤口⑥口 |⑤⑥⑦⑧|
③口④口
①口②①

口⑨口⑬
口⑩口⑭
口⑪口⑮ |⑨⑩⑪⑫|
口⑫口⑯ |⑬⑭⑮⑯|
63
∨口口口 |①---|
|口口口 |----|
|口口口 |----|
①口口口 |----|
64
④口口⑦ |①②③④|
⑧口口① |⑤⑥⑦⑧|
口⑥⑤口
①②口③

⑯⑩口口
口口⑬⑮
⑫口口⑪ |⑨⑩⑪⑫|
⑭口⑨口 |⑬⑭⑮⑯|
65
口口③⑦ |①②③④|
口⑥口口 |⑤⑥⑦⑧|
⑧④口口
口②⑤①

⑭⑩口口
口口口⑬
口⑯⑪⑨ |⑨⑩⑪⑫|
⑫口口⑮ |⑬⑭⑮⑯|
66
口口③② |①-②③|
④⑤①口 |④⑤⑥⑦|
口口⑦口
口①⑥口

⑫⑬口⑭
口口⑮⑪
⑨口口⑩ |⑧⑨⑩⑪|
⑧口口口 |⑫⑬⑭⑮|
67
口④口口 |①---|
口③口口 |②---|
口②口口 |③---|
口①口① |④---|
68
口口口口 |①-②③|
④⑤①口 |④⑤⑥⑦|
⑦口③②
⑥①口口

⑩口口⑨
口口⑫⑧
口⑪口口 |⑧⑨⑩⑪|
口⑭⑮⑬ |⑫⑬⑭⑮|
69
口口口口 |①---|
①②③④ |②---|
口口①口 |③---|
口口口口 |④---|
70
⑥③⑧⑤ |①---|
②①④口 |②③④⑤|
⑩⑦⑫⑨ |⑥⑦⑧⑨|
口⑪①⑬ |⑩⑪⑫⑬|
71
口口口口 |①---|
②①口① |②---|
④口口③ |③---|
口口口口 |④---|
72
⑥⑦口口 |①-②③|
口①口⑤ |④⑤⑥⑦|
口③④口
②口①口

口口⑧⑨
⑪口口口
⑩口口⑬ |⑧⑨⑩⑪|
⑭⑮口⑫ |⑫⑬⑭⑮|
73
④⑥口口 |①②③④|
口口①⑤ |⑤⑥⑦⑧|
⑧②⑦口
口口③口

口口⑬⑨
⑭⑩口口
口⑯口⑪ |⑨⑩⑪⑫|
⑫口⑮口 |⑬⑭⑮⑯|
74
口口口⑥ |①-②③|
口⑤①⑦ |④⑤⑥⑦|
④口③口
口①口②

⑧⑨口口
⑬口⑭口
口口⑮⑩ |⑧⑨⑩⑪|
⑫口⑪口 |⑫⑬⑭⑮|
75
⑦口⑧② |①-②③|
⑨口⑩③ |④-⑤⑥|
⑪④⑫⑤ |⑦⑧⑨⑩|
⑬①⑭⑥ |⑪⑫⑬⑭|
76
⑦①⑥① |①-②③|
口⑤口④ |④⑤⑥⑦|
口③口②
口口口口

口⑮口⑭
⑬口⑫口
⑪口⑩口 |⑧⑨⑩⑪|
口⑨口⑧ |⑫⑬⑭⑮|
77
④⑬④⑪ |①-②③|
⑭⑤⑫② |④-⑤⑥|
⑩⑥⑧③ |⑦⑧⑨⑩|
①⑨①⑦ |⑪⑫⑬⑭|
78
③口口口 |①-②③|
口②口口 |④⑤⑥⑦|
⑦口⑤④
①⑥①口

口口⑨⑧
⑪⑮口口
口⑩口口 |⑧⑨⑩⑪|
⑭口⑬⑫ |⑫⑬⑭⑮|
79
口①口口 |①-②③|
⑥口①② |④-⑤⑥|
⑤口④③
口④口口

⑧⑫⑪⑦
口⑭⑬口
口口口口 |⑦⑧⑨⑩|
⑩口口⑨ |⑪⑫⑬⑭|
80
⑧口口⑤ |①②③④|
④口口口 |⑤⑥⑦⑧|
口⑥口①
口②③⑦

口⑭⑪口
口⑫⑮⑨
⑯口口⑬ |⑨⑩⑪⑫|
⑩口口口 |⑬⑭⑮⑯|
81
⑥口口③ |①②③④|
②口口口 |⑤⑥⑦⑧|
口④⑦口
⑧口①⑤

口⑭⑪口
口⑩口⑬
⑯口口⑨ |⑨⑩⑪⑫|
口⑫⑮口 |⑬⑭⑮⑯|
82
口口口① |①---|
口口口| |----|
口口口| |----|
口口口∧ |----|
83
口口口口 |----|
口口口口 |----|
口口口口 |----|
口口口口 |----|
84
①口口① |①---|
口口口口 |----|
口口口口 |----|
口口口口 |----|

不確定度: 0

最終更新:2016年04月25日 23:16