アットウィキロゴ

Diargosの森
Mutsuhiko Izumi

ADVANCED

Level: 6
BPM: 140
Notes: 376

1
口口口口 |----|
口口口口 |----|
口口口口 |----|
口口口口 |----|
2
④⑦口口 |①-②-|
③⑥口口 |③-④-|
②⑤口口 |--⑤-|
口>―① |⑥-⑦-|
3
⑤口④口 |①-②-|
口口③口 |③-④-|
口⑥②口 |--⑤-|
口口口① |--⑥-|
4
口口⑦④ |①-②-|
口口⑥③ |③-④-|
口口⑤② |--⑤-|
①―<口 |⑥-⑦-|
5
口④口⑤ |①-②-|
口③口口 |③-④-|
口②⑥口 |--⑤-|
①口口口 |--⑥-|
6
①①口口 |①---|
口口口口 |②-③-|
②口④口 |----|
③口口口 |--④-|
7
口口①① |①---|
口口口口 |②-③-|
口④口② |----|
口口口③ |--④-|
8
口①①口 |①---|
口⑥口口 |②-③-|
口⑤②口 |--④-|
口④③口 |⑤-⑥-|
9
④③②① |①---|
口口口口 |②---|
④③②① |③---|
口口口口 |④---|
10
口口口口 |①---|
口①①口 |----|
口||口 |----|
口∧∧口 |----|
11
∨口口∨ |①---|
①①①① |----|
口口口口 |----|
口口口口 |----|
12
口∨∨口 |①---|
①||① |----|
口①①口
口口口口

③口口③
④口口④
口②②口 |②---③-|
口口口口 |--④---|
13
口口口口 |①---②-|
口②②口 |--③---|
口③③口 |④---|
①④④① |----|
14
④⑦口口 |①-②-|
③⑥口口 |③-④-|
②⑤口口 |--⑤-|
>――① |⑥-⑦-|
15
口口④⑦ |①-②-|
口口③⑥ |③-④-|
口口②⑤ |--⑤-|
口口口① |⑥-⑦-|
16
口⑥⑤④ |①---②-|
①②③口 |--③---|
⑥⑤④口 |④---⑤-|
口①②③ |--⑥---|
17
∨口口∨ |①---②-|
|①②| |--③---|
|③③| |④---|
④②①④

口口口口
口口口口
口口口口
⑤口口⑤ |--⑤-|
18
口口口口 |①---|
③②口① |②-③-|
口口①口 |----|
口口口口 |----|
19
口口口口 |①---|
口口口口 |②-③-|
①口②③ |----|
口①口口 |----|
20
口口口口 |①---|
口口①⑥ |②-③-|
③②⑤① |--④-|
口口④口 |⑤-⑥-|
21
①①口口 |①---|
②②口口 |②---|
③③口口 |③---|
④④口口 |④---|
22
口①口① |①---|
口口②口 |②-③-|
口口③口 |----|
口口口口 |----|
23
①口①口 |①---|
口②口口 |②-③-|
口③口口 |----|
口口口口 |----|
24
口口口口 |①---|
⑥口口① |②-③-|
⑤③②口 |--④-|
④口口① |⑤-⑥-|
25
口口①① |①---|
口口②② |②---|
口口③③ |③---|
口口④④ |④---|
26
口口口口 |①---|
①――< |----|
>――② |②---|
口口口口 |----|
27
口①口口 |①---|
①|口口 |----|
口|口② |②---|
口∧口口 |----|
28
口①口口 |①---|
>――① |----|
口口口口
口口口口

②――<
口口口口
口口口口 |②---|
口口口口 |----|
29
②口∨口 |①---|
口口|① |----|
口口①口 |②---|
口口口口 |----|
30
口∨口口 |①---|
口|口② |----|
口①①| |②---|
口口口∧ |----|
31
①――< |①---|
>―②② |----|
口①口口 |②---|
口口口口 |----|
32
①∨∨口 |①---|
口|①口 |----|
口①①口 |----|
口口口口 |----|
33
口口口口 |①---|
①口口① |----|
|①①|
∧口口∧

口口口口
②②②②
口口口口 |②---|
口口口口 |----|
34
>――① |①---|
口口口口 |----|
口口口口
口口口口

口口口②
口③②口
口口口口 |--②-|
口口口口 |--③-|
35
∨口口口 |①---|
|口口口 |----|
①口口口
口口口口

口②口口
口口口③
②④口口 |--②-|
口口口口 |③-④-|
36
口口口口 |①---|
口口口口
口口口口
口口>①

口口口口
口②口口 |--②-|
④口口口 |----|
口③口② |③-④-|
37
口口口口 |①---|
①口口口 |----|
②③④⑤ |----|
口口口口 |②③④⑤|
38
口口口口 |①---|
口①―< |----|
口口口口
口口口口

口口②口
口②③口
口口口口 |--②-|
口口口口 |--③-|
39
口口口口 |①---|
口口口口
>―①口
口口口口

口口口口
②――< |--②-|
口口②口
口口口口

口口口口
③口口④
口口口③ |----|
口口口口 |③-④-|
40
口>―① |①---|
口口口口
口口口口
口口口口

口口口②
口②―< |--②-|
口口口口
口口口口

口口③口
口③④口
口口口口 |----|
口口口口 |③-④-|
41
口口口口 |①---|
口口口口 |----|
>―①口
口口口口

口②口④
口③口⑤
口口②口 |②-③-|
口口口口 |④-⑤-|
42
②③④口 |①-②③|
口⑤口口 |④-⑤-|
口口口①
口口口口

口口口⑥
口口⑦口
口口口⑧ |⑥-⑦-|
口口⑨口 |⑧-⑨-|
43
⑥④③② |①-②③|
口⑦⑤⑩ |④-⑤-|
⑧①口⑨ |⑥-⑦-|
口口口口 |⑧-⑨⑩|
44
口口口① |①---|
③④②口 |----|
口口口口 |②---③-|
②④③口 |--④---|
45
口口口口 |①---|
口口口② |--②③|
①口①③ |④---|
口>―④ |----|
46
口口口⑥ |①-②③|
口⑤⑦口 |④-⑤-|
②③④⑧ |⑥-⑦-|
口口⑨① |⑧-⑨-|
47
⑤③②① |--①②|
口⑥④口 |③-④-|
⑦口口口 |⑤-⑥-|
口⑧口口 |⑦-⑧-|
48
③①口② |①---②-|
口口口口 |--③---|
口口口口
②口①③

口口④⑥
⑤口口口
口口口⑤ |④---⑤-|
⑥④口口 |--⑥---|
49
口①②口 |①---②-|
口口口③ |--③---|
③口口口
口②①口

④――<
口口口口
口口口口 |④---|
>――④ |----|
50
①口∨口 |①---|
口①|口 |----|
口|①口
口∧口①

口口口③
口②口③
④口②口 |②-③-|
④口口口 |--④-|
51
口∨口口 |①---|
口|①口 |----|
口①|口 |----|
口口∧口 |----|
52
口口口口 |①---|
口>①① |----|
①①<口
口口口口

口口口口
口③口②
②口②口 |----|
口口口口 |②-③-|
53
>―①口 |①---|
口口口口 |----|
口口口口
口口口口

口口②口
口②―<
口口口口 |②---|
口口口口 |----|
54
口口口口 |①---|
口①口口 |----|
>――①
口口口口

口③口口
口口②口
口口口② |----|
口口口口 |②-③-|
55
①口口口 |①---|
|口口口 |----|
∧口口口
口口口口

②口③口
口②口口
口口口口 |----|
口口口口 |②-③-|
56
口口口① |①---|
口口口| |----|
口口口∧ |----|
口口口口 |----|
57
口∨∨① |①---|
口||口 |----|
口①①口
口口口口

口口口口
②口口②
|②②| |②---|
∧口口∧ |----|
58
口口①口 |①---|
①口|① |----|
②―┼< |②---|
口口∧口 |----|
59
口口①口 |①---|
>――① |----|
口口口口 |----|
口口口口 |----|
60
口∨口口 |①---|
口|口① |----|
①|口口
口①口口

口口口口
口口口口
>――② |②---|
口口口口 |----|
61
口口口口 |①---|
①――< |----|
口口口口 |----|
口①口口 |----|
62
口②∨口 |①---|
①||口 |----|
口||① |②---|
口∧①口 |----|
63
口②口口 |①---|
②――< |----|
>――① |②---|
口口①口 |----|
64
口∨口口 |①---|
①|①口 |----|
口①|① |----|
口口∧口 |----|
65
∨口口① |①---|
|口①| |----|
|①口|
①口口∧

口口②②
口口口口
口口口口 |②---|
②②口口 |----|
66
口口口口 |----|
口口口口 |----|
口口口口 |----|
口口口口 |----|
67
口口口口 |----|
口口口口 |----|
口口口口 |----|
口口口口 |----|
68
口口口口 |①---|
∨∨∨∨ |----|
|||| |----|
①①①① |----|
69
口口口口 |----|
口口口口 |----|
口口口口 |----|
口口口口 |----|
70
口口口口 |①---|
口口口口 |----|
口口口口 |----|
①①①① |----|

不確定度: 0

最終更新:2016年04月25日 03:51