アットウィキロゴ

Glitter Flatter Scatter
Project B-

EXTREME

Level: 10
BPM: 197
Notes: 890

1
口口口口 |----|
口口口口 |----|
口口口口 |----|
口口口口 |----|
2
⑤口口① |①---|
口口口口 |②-③-|
口④③口 |--④-|
②口口口 |⑤---|
3
口②口① |①---|
口⑦⑥口 |②---|
口⑤④口 |③---|
口口口③ |④⑤⑥⑦|
4
②口口③ |①---|
⑤口口口 |②-③-|
口口④口 |--④-|
口①口口 |⑤---|
5
口①⑦口 |①---|
口⑥③⑨ |②---|
⑩④⑤口 |③④⑤⑥|
口⑧②口 |⑦⑧⑨⑩|
6
②口⑤① |①---|
口口③口 |②-③-|
口④口口 |--④-|
①口口口 |⑤---|
7
口口口① |①---|
口⑦⑥② |②---|
口⑤④口 |③---|
③口口口 |④⑤⑥⑦|
8
②③口口 |①---|
口口口口 |②-③-|
口口⑤④ |--④-|
口①口口 |⑤---|
9
⑤口③口 |①---|
③④③⑤ |②---|
④口④口 |③--④|
①口口② |--⑤-|
10
口⑤⑧⑤ |①②③④|
口口⑥口 |⑤-⑥-|
口口⑦口 |--⑦-|
①②③④ |⑧---|
11
①②口口 |①---|
②①口口 |②---|
口口口口
口口口口

口口口口
口⑦⑥口
口⑤④口 |③---|
口口③③ |④⑤⑥⑦|
12
⑤⑤口② |①---|
口口口口 |②-③-|
口口口口 |--④-|
③①口④ |⑤---|
13
口口口口 |①---|
口口口① |②---|
①口口口
口②②口

口口口口
⑧⑥③⑨
⑩④⑤⑦ |③④⑤⑥|
口口口口 |⑦⑧⑨⑩|
14
④③②① |①②③④|
口口⑧口 |⑤-⑥-|
口⑦口口 |--⑦-|
①⑤⑥⑤ |⑧---|
15
口②①口 |①---|
②⑦⑥① |②---|
口⑤④口 |③---|
口口③③ |④⑤⑥⑦|
16
⑤口口② |①---|
口口口口 |②-③-|
口口口口 |--④-|
④①口③ |⑤---|
17
⑥口口③ |①---②-|
口④①口 |--③---|
②口口⑤ |④---⑤-|
口⑥③口 |--⑥---|
18
∨口①口 |①②|
|口②口
|口口口
①口口口

⑧口口⑦ |③④|
口口口⑥ |⑤-⑥-|
口口③口 |--⑦-|
④口④⑤ |⑧---|
19
口②①口 |①---|
口①②口 |②---|
⑦⑤⑥④ |③---|
口③③口 |④⑤⑥⑦|
20
①口口口 |①---|
|口口口
|口口口
∧口口口

口口口口
口⑤口④ |②-③-|
口口口口 |--④-|
②口口③ |⑤---|
21
①②①① |①---|
口口口| |②---|
口口口|
口口口∧

口口口口
④⑧⑥⑩
③⑦⑤⑨ |③④⑤⑥|
口口口口 |⑦⑧⑨⑩|
22
⑤口⑥① |①---|
口口口口 |②-③-|
④口④口 |④-⑤-|
①③①② |⑥---|
23
口口口② |①---|
口①③① |②---|
④⑥⑤⑦ |③---|
口③①③ |④⑤⑥⑦|
24
口④①口 |①---|
④②③① |②-③-|
口口口口 |④-⑤-|
⑥口口⑤ |⑥---|
25
口③②口 |①---|
③口口② |②---|
④口口① |③---|
口④①口 |④---|
26
⑤口口④ |①---|
口口口③ |②-③-|
口口口口 |--④-|
①口①② |⑤---|
27
口②①口 |①---|
口①②口 |②---|
⑦⑤⑥④ |③---|
口③③口 |④⑤⑥⑦|
28
①口口口 |①---|
|口口口
|口口口
∧口口口

口口口口
口⑤口④ |②-③-|
口口口口 |--④-|
②口口③ |⑤---|
29
①②①① |①---|
口口口| |②---|
口口口|
口口口∧

口口口口
④⑧⑥⑩
③⑦⑤⑨ |③④⑤⑥|
口口口口 |⑦⑧⑨⑩|
30
⑤口⑥① |①---|
口口口口 |②-③-|
④口④口 |④-⑤-|
①③①② |⑥---|
31
口口口② |①---|
口①③① |②---|
④⑥⑤⑦ |③---|
口③①③ |④⑤⑥⑦|
32
口④①口 |①---|
④②③① |②-③-|
口口口口 |④-⑤-|
⑥口口⑤ |⑥---|
33
④口⑪① |①②③④|
⑧⑫⑦口 |⑤⑥⑦⑧|
⑩②口⑤ |⑨⑩⑪⑫|
口⑥③⑨

口口∨口
口口|口
口口⑬口
口口口口 |⑬---|
34
口①口① |①-②-|
③⑤③⑤ |--③-|
口②①② |④---|
④⑥④⑥ |⑤-⑥-|
35
①⑥①⑨ |--①-|
⑧口⑤口 |②---|
②④②⑦ |③④⑤⑥|
⑩口③口 |⑦⑧⑨⑩|
36
⑤口②口 |①---|
口口口口 |②-③-|
④口③口 |--④-|
口口口① |⑤---|
37
⑤口口⑤ |①-②-|
口③口① |--③-|
口口口口 |④---|
口④④② |⑤---|
38
口①④口 |①---|
②⑧⑦口 |②-③-|
口⑥⑤口 |--④-|
③口口口 |⑤⑥⑦⑧|
39
④口⑦① |①-②③|
⑬⑫⑪⑩ |④-⑤⑥|
⑥口⑨③ |⑦-⑧⑨|
⑤口⑧② |⑩⑪⑫⑬|
40
⑤①口③ |①-②-|
⑥口口口 |--③-|
口②口④ |④---|
⑥②口④ |⑤-⑥-|
41
口口①口 |--①-|
⑧④⑨⑤ |②---|
⑥⑩③⑦ |③④⑤⑥|
口②②口 |⑦⑧⑨⑩|
42
⑤口②口 |①---|
口口口口 |②-③-|
④口③口 |--④-|
口口口① |⑤---|
43
⑤口口⑤ |①-②-|
口③口① |--③-|
口口口口 |④---|
口④④② |⑤---|
44
口①④口 |①---|
②⑧⑦口 |②-③-|
口⑥⑤口 |--④-|
③口口口 |⑤⑥⑦⑧|
45
④口⑦① |①-②③|
⑬⑫⑪⑩ |④-⑤⑥|
⑥口⑨③ |⑦-⑧⑨|
⑤口⑧② |⑩⑪⑫⑬|
46
③①⑤口 |①-②-|
口口口口 |--③-|
④②口⑥ |④---|
④②⑥口 |⑤-⑥-|
47
③口⑤① |--①-|
口④②⑥ |②---|
口⑧口⑩ |③④⑤⑥|
⑦口⑨② |⑦⑧⑨⑩|
48
⑨⑥⑪⑧ |①②③④|
⑤⑩⑦⑫ |⑤⑥⑦⑧|
①⑭③⑯ |⑨⑩⑪⑫|
⑬②⑮④ |⑬⑭⑮⑯|
49
∨口口口 |①---|
|口口口 |----|
①口口口
口口口口

口口口口
④⑤口口
②口口口 |----|
口口③② |②③④⑤|
50
口口①口 |①---|
口口|口 |----|
口口|口
口口∧口

口口⑥⑥
口口口口
⑤④③② |②③④⑤|
⑥口口口 |⑥---|
51
口口口⑤ |①--②|
③①口口 |--③-|
口口④口 |-④--|
⑤口②口 |⑤---|
52
⑤①口口 |①--②|
口口②口 |--③-|
口④口口 |-④--|
口③口⑤ |⑤---|
53
口③口② |①--②|
口⑤⑥口 |--③-|
口口口口 |-④--|
①口④口 |⑤--⑥|
54
口口口口 |--①-|
③④口口 |-②--|
口⑤②① |③--④|
口口口口 |--⑤-|
55
②口口⑤ |①--②|
口④①口 |--③-|
口口口口 |-④--|
⑤口③口 |⑤---|
56
⑤口口口 |①--②|
口④口口 |--③-|
口②①口 |-④--|
口口③⑤ |⑤---|
57
口口③口 |①--②|
④口口口 |--③-|
口②①⑤ |-④--|
⑥口口口 |⑤--⑥|
58
②⑩⑨口 |--①-|
口⑧⑦① |-②--|
口⑥⑤口 |③④⑤⑥|
口④③口 |⑦⑧⑨⑩|
59
口口口① |①---|
口口口| |----|
口口口| |----|
口口口∧ |----|
60
①口口① |①---|
∧口口口 |----|
口口口口
口口口口

②口口口
口②口口
口∧口口 |②---|
口口口口 |----|
61
口口口口 |①---|
口①∨口 |----|
口口①口
口口口口

口口口口
口口口口
口口②∨ |②---|
口口口② |----|
62
①口口口 |①---|
∧口口口 |----|
口口口口
口口口①

②口口②
口口口∧
口口口口 |②---|
口口口口 |----|
63
口口口① |①---|
口①口口 |----|
口∧口口
口口口口

口口口口
口②②口
口口∧口 |②---|
口口口口 |----|
64
口口口口 |①---|
口口①口 |----|
口∨口口
口①口口

口口②口
口口|口
口口|口 |②---|
口②∧口 |----|
65
口口口口 |①--②|
③口口④ |--③-|
①口口② |-④--|
⑤口口⑥ |⑤--⑥|
66
口②①⑧ |①-②-|
⑤⑧⑦口 |-③--|
口④⑧⑥ |④⑤⑥⑦|
⑧口③口 |⑧---|
67
②③口口 |①-②③|
口口口① |-④⑤-|
口⑤口口
口④口①

口口口口
⑥⑩⑦⑫
⑨口⑪⑧ |⑥⑦-⑧|
口口口口 |⑨⑩⑪⑫|
68
口③②口 |①-②③|
口⑫⑥⑩ |-④⑤-|
⑪⑧⑨⑦ |⑥⑦-⑧|
口④⑤① |⑨⑩⑪⑫|
69
②③⑦① |①-②③|
⑦⑫⑧⑪ |④⑤⑥-|
⑩口⑩口 |⑦⑧-⑨|
⑤⑥⑨④ |⑩-⑪⑫|
70
⑤口⑥⑪ |-①②-|
口口⑦口 |③④-⑤|
口②⑧① |⑥⑦⑧⑨|
⑩④⑨③ |⑩-⑪-|
71
⑤①口口 |①-②③|
④口口① |-④⑤-|
口①口口
口③口②

口口⑥口
口⑩口⑫
⑨口⑪⑧ |⑥⑦-⑧|
口口⑦口 |⑨⑩⑪⑫|
72
⑤④口⑦ |①-②③|
口⑫⑥⑩ |-④⑤-|
⑪⑧⑨口 |⑥⑦-⑧|
②③口① |⑨⑩⑪⑫|
73
⑤⑥④⑨ |①-②③|
⑦⑫⑦⑬ |④⑤⑥-|
⑩口⑪口 |⑦⑧-⑨|
②③①⑧ |⑩⑪⑫⑬|
74
⑤口⑥口 |①②③④|
口口口口 |⑤⑥⑦⑧|
口③口④
①⑦②⑧

口⑨―<
⑨―<口
口口口口 |⑨---|
口口口口

口⑩口口
⑩口口口
口口⑩口
口口⑪口 |--⑩⑪|
75
口口③② |①-②③|
口口①① |-④⑤-|
口口口口
④⑤口口

⑦口口口
口⑩口⑫
⑨⑥⑪⑧ |⑥⑦-⑧|
口口口口 |⑨⑩⑪⑫|
76
口口②⑥ |①-②③|
口⑫③⑩ |-④⑤-|
⑪⑧⑨⑦ |⑥⑦-⑧|
口⑤④① |⑨⑩⑪⑫|
77
②③①⑦ |①-②③|
⑦⑫⑧⑪ |④⑤⑥-|
⑩口⑩口 |⑦⑧-⑨|
⑤⑥④⑨ |⑩-⑪⑫|
78
⑤④⑥⑪ |-①②-|
口口⑦口 |③④-⑤|
口②⑧① |⑥⑦⑧⑨|
⑩③⑨口 |⑩-⑪-|
79
⑤口口口 |①-②③|
①④⑥① |-④⑤-|
③⑧⑧⑦ |⑥⑦--|
口②口① |⑧---|
80
⑥②④① |①-②③|
⑦③⑤⑧ |-④⑤-|
⑫⑪⑩⑨ |⑥⑦-⑧|
⑥②④① |⑨⑩⑪⑫|
81
⑩②⑨① |①②③④|
⑫⑥⑤⑪ |⑤⑥⑦⑧|
⑯⑭⑬⑮ |⑨⑩⑪⑫|
⑧④⑦③ |⑬⑭⑮⑯|
82
口⑥⑥口 |①②③④|
口④③口 |⑤-⑥-|
口口口口
口②⑤①

∨口口⑦
|口口|
|口口| |⑦---|
⑦口口∧ |----|
83
⑥口口① |①---|
口口①③ |②-③-|
④①口⑤ |④-⑤-|
①口口② |⑥---|
84
口②①口 |①---|
口①②口 |②---|
⑦⑤⑥④ |③---|
口③③口 |④⑤⑥⑦|
85
①口口口 |①---|
|口口口
|口口口
∧口口口

口口口口
口⑥④⑤ |②-③-|
口口口口 |④-⑤-|
②口口③ |⑥---|
86
①②①① |①---|
口口口| |②---|
口口口|
口口口∧

口口口口
④⑧⑥⑩
③⑦⑤⑨ |③④⑤⑥|
口口口口 |⑦⑧⑨⑩|
87
⑤口⑥① |①---|
口口口口 |②-③-|
④口④口 |④-⑤-|
①③①② |⑥---|
88
口口口② |①---|
口①③① |②---|
④⑥⑤⑦ |③---|
口③①③ |④⑤⑥⑦|
89
口④①口 |①---|
④口口① |②-③-|
口口口口 |④-⑤-|
⑤③②⑥ |⑥---|
90
⑥口口③ |①---②-|
口④①口 |--③---|
②口口⑤ |④---⑤-|
口⑥③口 |--⑥---|
91
⑥口①口 |①---|
①口口③ |②-③-|
④口①⑤ |④-⑤-|
①口口② |⑥---|
92
口②①口 |①---|
口①②口 |②---|
⑦⑤⑥④ |③---|
口③③口 |④⑤⑥⑦|
93
①口口口 |①---|
|口口口
|口口口
∧口口口

口口口口
口⑥④⑤ |②-③-|
口口口口 |④-⑤-|
②口口③ |⑥---|
94
①②①① |①---|
口口口| |②---|
口口口|
口口口∧

口口口口
③口④⑤
③④口⑤ |③--④|
口口口口 |--⑤-|
95
⑤口⑥① |①---|
口口口口 |②-③-|
④口④口 |④-⑤-|
①③①② |⑥---|
96
口口口② |①---|
口①③① |②---|
④⑥⑤⑦ |③---|
口③①③ |④⑤⑥⑦|
97
口④①口 |①---|
④②③① |②-③-|
口口口口 |④-⑤-|
⑥口口⑤ |⑥---|
98
②⑫⑨⑦ |①②③④|
⑩⑥口③ |⑤⑥⑦⑧|
④口①口 |⑨⑩⑪⑫|
口⑧⑤⑪

口口口口
>―⑬口
口⑬―<
口口口口 |⑬---|
99
∨口口① |----|
|口①| |①---|
|①口| |----|
①口口∧ |----|
100
④③②① |①②③④|
口口口口 |----|
口口口口 |----|
①②③④ |----|

不確定度: 0

最終更新:2016年07月27日 15:41