アットウィキロゴ

制作現場での出来事
猫大樹

ADVANCED

Level: 6
BPM: 150
Notes: 429

1
口口口口 |----|
口口口口 |----|
口口口口 |----|
口口口口 |----|
2
口③③口 |①---|
口口口口 |----|
①②②① |②---|
口口口口 |③---|
3
口③③口 |①---|
口口口口 |----|
①②②① |②---|
口口口口 |③---|
4
口③③口 |①---|
口口口口 |----|
①②②① |②---|
口口口口 |③---|
5
口③③口 |①---|
口口口口 |----|
①②②① |②---|
口口口口 |③---|
6
①口口口 |①---|
⑤口口③ |--②-|
②口口口 |③-④-|
⑥口口④ |⑤-⑥-|
7
④口口② |①-②-|
口口口口 |③-④-|
③口口① |----|
口口口口 |----|
8
口口口① |①---|
③口口⑤ |--②-|
口口口② |③-④-|
④口口⑥ |⑤-⑥-|
9
②口口④ |①-②-|
口口口口 |③-④-|
①口口③ |----|
口口口口 |----|
10
口①口口 |①---|
口③⑤口 |--②-|
口口②口 |③-④-|
口④⑥口 |⑤-⑥-|
11
口②④口 |①-②-|
口口口口 |③-④-|
口①③口 |----|
口口口口 |----|
12
①口口口 |①---|
口口⑥口 |--②-|
口⑤②口 |③-④-|
口③④口 |⑤-⑥-|
13
口①口口 |①---|
口口口口 |----|
口口口口 |----|
口口口口 |----|
14
口③④① |①---|
口②⑤① |--②-|
口口⑥口 |③-④-|
口口口口 |⑤-⑥-|
15
口口口口 |①-②-|
口④口口 |③-④-|
口③口口 |----|
口②①口 |----|
16
①④③口 |①---|
①⑤②口 |--②-|
口⑥口口 |③-④-|
口口口口 |⑤-⑥-|
17
口口口口 |①-②-|
口口④口 |③-④-|
口口③口 |----|
口①②口 |----|
18
①口口① |①---|
口⑤③口 |--②-|
⑥②④口 |③-④-|
口口口口 |⑤-⑥-|
19
口口口口 |①-②-|
口口④口 |③-④-|
口口口③ |----|
口①②口 |----|
20
①口口① |①---|
口③口口 |--②-|
口④②口 |③-④-|
口口口口 |----|
21
口口口口 |----|
口口口口 |----|
口口口口 |----|
口口口口 |----|
22
①④①⑤ |①---|
口⑥口③ |②---|
口口口口 |③-④-|
口②口② |⑤-⑥-|
23
口⑥口⑦ |①-②-|
口⑧口⑤ |③-④-|
口④口① |⑤-⑥-|
口②口③ |⑦-⑧-|
24
①口①口 |①---|
口口口口 |----|
口口口口 |----|
口口口口 |----|
25
口口口口 |①---|
口口口口 |----|
口口口口 |----|
①口①口 |----|
26
⑤①④① |①---|
③口⑥口 |②---|
口口口口 |③-④-|
②口②口 |⑤-⑥-|
27
⑦口⑥口 |①-②-|
⑤口⑧口 |③-④-|
①口④口 |⑤-⑥-|
③口②口 |⑦-⑧-|
28
口①口① |①---|
口口口口 |----|
口口口口 |----|
口口口口 |----|
29
口口口口 |①---|
口口口口 |----|
口口口口 |----|
①口①口 |----|
30
②口口① |①---|
口口口③ |②---|
口口口口 |③---|
口④④口 |④---|
31
①口口② |①---|
③口口口 |②---|
口口口口 |③---|
口④④口 |④---|
32
②口口① |①---|
口口口③ |②---|
口口口口 |③---|
口④④口 |④---|
33
①口口② |①---|
③口口口 |②---|
口口口口 |③---|
口④④口 |④---|
34
③③①① |①---|
口口口口 |②---|
口口口口 |③---|
②④④② |④---|
35
③③①① |①---|
口口口口 |②---|
口口口口 |③---|
②④④② |④---|
36
③③①① |①---|
口口口口 |②---|
口口口口 |③---|
②④④② |④---|
37
口口①① |①---|
口口口口 |②---|
口口口口
②口口②

④口口④
口口口口
口口口口 |③---|
口③③口 |④---|
38
④③④③ |①---|
口②口② |②---|
口①口① |③---|
口口口口 |④---|
39
口⑤⑤口 |①-②-|
④③②① |③-④-|
口⑦⑥口 |⑤---|
口口口口 |⑥-⑦-|
40
①口口① |①---|
口口口口 |----|
口口口口 |----|
口口口口 |----|
41
口②口② |①---|
口口口口 |----|
①①①① |----|
口口口口 |②---|
42
③④③④ |①---|
②口②口 |②---|
①口①口 |③---|
口口口口 |④---|
43
口⑤⑤口 |①-②-|
①②③④ |③-④-|
口⑥⑦口 |⑤---|
口口口口 |⑥-⑦-|
44
①口口① |①---|
口口口口 |----|
口口口口 |----|
口口口口 |----|
45
口口口口 |①---|
口口口口 |----|
①①①① |----|
口口口口 |----|
46
①①口口 |①---|
口口②② |②---|
③③口口 |③---|
④口口④ |④---|
47
口口①① |①---|
②②口口 |②---|
口口③③ |③---|
④口口④ |④---|
48
①①口口 |①---|
口口②② |②---|
③③口口 |③---|
④口口④ |④---|
49
口口①① |①---|
②②口口 |②---|
口口③③ |③---|
④口口④ |④---|
50
①口口② |①---|
①③口② |②---|
口③口口 |③---|
④口口④ |④---|
51
②口口① |①---|
②口③① |②---|
口口③口 |③---|
④口口④ |④---|
52
①口口② |①---|
①③口② |②---|
口③口口 |③---|
④口口④ |④---|
53
③口口③ |①---|
②口口② |----|
口口口口 |②---|
口①①口 |③---|
54
口⑤①口 |①---|
⑤①④③ |②---|
口口②口 |③-④-|
口②口口 |⑤---|
55
口口②口 |①---|
口②口口 |②---|
③④①⑤ |③-④-|
口①⑤口 |⑤---|
56
口⑤①口 |①---|
⑤①④③ |②---|
口口②口 |③-④-|
口②口口 |⑤---|
57
口口⑤⑤ |①---|
④口口口 |②---|
口②①③ |③-④-|
口①②口 |⑤---|
58
口①⑤口 |①---|
③④①⑤ |②---|
口②口口 |③-④-|
口口②口 |⑤---|
59
口②口口 |①---|
口口②口 |②---|
⑤①④③ |③-④-|
口⑤①口 |⑤---|
60
口①⑤口 |①---|
③④①⑤ |②---|
口②口口 |③-④-|
口口②口 |⑤---|
61
⑤⑤口口 |①---|
口口口④ |②---|
③①②口 |③-④-|
口②①口 |⑤---|
62
③口口① |①---|
口①③口 |②---|
④口口② |③---|
口②④口 |④---|
63
口口③① |①---|
③①口口 |②---|
口口口② |③---|
④②口④ |④---|
64
③口口① |①---|
口①③口 |②---|
④口口② |③---|
口②④口 |④---|
65
口口③① |①---|
③①口口 |②---|
口口口② |③---|
④②口④ |④---|
66
①口口③ |①---|
③口口① |②---|
②口口④ |③---|
口④②口 |④---|
67
①口③口 |①---|
口③口① |②---|
②口口口 |③---|
④口②④ |④---|
68
③口口① |①---|
①口口③ |②---|
④口口② |③---|
口②④口 |④---|
69
口口口① |①---|
①口口口 |②---|
口口口②
口②口口

④③口④
④口③④
口口口口 |③---|
口口口口 |④---|

不確定度: 0

最終更新:2016年09月21日 01:06