アットウィキロゴ

BLACK or WHITE?
BlackYooh vs. siromaru

EXTREME

Level: 10
BPM: 185
Notes: 911

1
口口口口 |----|
口口口口 |----|
口口口口 |----|
口口口口 |----|
2
口⑥②口 |①-②-|
④③⑦⑧ |③-④-|
⑤口口① |⑤-⑥-|
口口口口 |⑦-⑧-|
3
⑥口口② |①-②-|
④③⑦⑧ |③-④-|
口⑤①口 |⑤-⑥-|
口口口口 |⑦-⑧-|
4
口⑥②口 |①-②-|
④③口口 |③-④-|
口口⑦⑧ |⑤-⑥-|
⑤口口① |⑦-⑧-|
5
⑥口口② |①-②-|
口口口口 |③-④-|
④③⑦⑧ |⑤-⑥-|
口⑤①口 |⑦-⑧-|
6
口⑥②口 |①-②-|
③④⑦⑧ |③-④-|
④③⑧⑦ |⑤-⑥-|
⑤口口① |⑦-⑧-|
7
口⑥②口 |①-②-|
④③⑦⑧ |③-④-|
⑤口口口 |⑤-⑥-|
口口口① |⑦-⑧-|
8
口∨口口 |①-|
口|口口
口|∨口
口①①口

∨口口口 |②-|
|口口口
|口口∨
②口②②

口口∨∨
口∨|| |③-④-|
口④③④
④③口③

∨口口口
|口口口
⑤⑤⑤口 |⑤-|
口口口口

口口口口
口⑥⑥口
口|∧⑥ |⑥-|
口∧口口

口口口⑦
口口⑦|
⑦口口|
口口口∧ |⑦-|

⑧口⑧口
∧⑧∧口
口口口口
口口口口 |⑧-|
9
①口①① |①---|
口⑩⑩口 |②③④⑤|
⑨⑤③⑦ |⑥⑦⑧⑨|
⑧④②⑥ |⑩---|
10
④口③② |①-②③|
①口口① |④-⑤⑥|
口口口口
口口⑥⑤

口口口口
口口⑫⑪
⑩口⑨⑧ |⑦-⑧⑨|
⑦口口口 |⑩-⑪⑫|
11
④⑬③② |①-②③|
①⑫口口 |④-⑤⑥|
口⑪⑨⑧ |⑦-⑧⑨|
⑦⑩⑥⑤ |⑩⑪⑫⑬|
12
④口③② |①-②③|
口口口① |④-⑤⑥|
口口口口
口口⑥⑤

口口口口
口口⑫⑪
⑩口⑨⑧ |⑦-⑧⑨|
⑦口口口 |⑩-⑪⑫|
13
④口③② |①-②③|
①口口口 |④-⑤⑥|
口口口口
口口⑥⑤

口⑩口口
⑬⑨口口
口⑧口⑫ |⑦⑧⑨⑩|
⑪⑦口口 |⑪⑫⑬-|
14
口口∨口 |①|
口口|口
口口①口
口口口口

口口⑤④ |②--|
口口口③ |③-④⑤|
口口②口
口口口口

⑥口口口
口口口口
口口⑪⑩ |⑥-⑦⑧|
⑨口⑧⑦ |⑨-⑩⑪|
15
⑦⑬⑥⑤ |①-②③|
④⑫③② |④-⑤⑥|
①⑪口口 |⑦-⑧⑨|
口⑩⑨⑧ |⑩⑪⑫⑬|
16
⑦⑭⑩⑨ |①-②③|
⑥⑬③② |④⑤⑥⑦|
⑤⑫⑧① |⑧-⑨⑩|
④⑪口口 |⑪⑫⑬⑭|
17
④>―⑨ |①-②-|
口⑧⑦② |③-④-|
③>―⑨ |⑤⑥⑦⑧|
口⑥⑤① |⑨|

口口口⑩
口口口口
口口口⑩
口口口口 |⑩--|
18
③口口⑥ |①-②-|
⑤口口⑤ |③---|
③①①⑥ |④-⑤-|
②④④② |⑥---|
19
口⑦⑦口 |①-②③|
⑦⑤④⑦ |-④⑤-|
口③②口 |⑥---|
①⑥⑥① |⑦---|
20
③口口⑥ |①-②-|
口⑤②口 |③---|
③④④⑥ |④-⑤-|
①口口① |⑥---|
21
⑦③①⑩ |①-②-|
⑥口口⑨ |③-④-|
⑤口口⑧ |⑤-⑥-⑦-|
②口口④ |⑧-⑨-⑩-|
22
口∨④口 |①---|
口①③口 |②---|
口口②口 |③---|
口口①口 |④---|
23
口口口④ |①---|
口①口③ |②---|
∨口口② |③---|
①口口① |④---|
24
∨口④口 |①---|
①口③口 |②---|
口口②口 |③---|
①口①口 |④---|
25
口∨⑧⑦ |①-②-|
①①⑥⑤ |③-④-|
口口④③ |⑤-⑥-|
口口②① |⑦-⑧-|
26
口口口口 |①---|
口①口口 |----|
口口口② |②---|
①><① |----|
27
口口口口 |①---|
口③②口 |----|
①②③口 |②---|
口口口口 |③---|
28
口口口口 |①---|
①口口① |----|
口口口② |②---|
口口口口 |----|
29
口口口口 |①---|
口②③口 |----|
①③②口 |②---|
口口口口 |③---|
30
④口口② |①---|
口口口口 |②---|
③口口① |③---|
①口口① |④---|
31
口口口口 |①---|
②④③① |②---|
口③④口 |③---|
口口口口 |④---|
32
④口口② |①---|
口口口口 |②---|
③口口① |③---|
口口口口 |④---|
33
口口口口 |①-②-|
口⑤⑥口 |③-④-|
口⑥⑤口 |⑤---|
④③②① |⑥---|
34
②口口口 |①-②-|
口口口④ |③-④-|
口口口口
口③口①

⑫⑪⑩⑨
口口口口
⑧⑦⑥⑤ |⑤⑥⑦⑧|
口口口口 |⑨⑩⑪⑫|
35
口口口口 |①-②-|
⑦④①⑤ |③-④-|
口⑧⑥口 |⑤-⑥-|
②口口③ |⑦-⑧-|
36
⑧⑦⑥⑤ |①-②-|
口④①口 |③-④-|
⑫⑪⑩⑨ |⑤⑥⑦⑧|
②口③口 |⑨⑩⑪⑫|
37
⑨⑩⑪⑫ |①②③④|
⑧⑦⑥⑤ |⑤⑥⑦⑧|
⑬⑭⑮⑯ |⑨⑩⑪⑫|
④③②① |⑬⑭⑮⑯|
38
⑧⑦⑥⑤ |①-②-|
④口口② |③-④-|
⑫⑪⑩⑨ |⑤⑥⑦⑧|
口①③口 |⑨⑩⑪⑫|
39
口口口口 |①-②-|
⑧④①⑤ |③-④-|
口口口口 |⑤-⑥-|
②⑥⑦③ |⑦-⑧-|
40
口口①口 |①-②-|
口④口口 |③-④-|
口口口口
②口口③

⑫⑪⑩⑨
口口口口
⑧⑦⑥⑤ |⑤⑥⑦⑧|
口口口口 |⑨⑩⑪⑫|
41
口口口口 |①-②-|
④口③口 |③-④⑤|
口口⑤口
口①口②

口⑧⑦口
口⑨口⑦
口⑩口口 |⑥-⑦-|
⑥⑪口口 |⑧⑨⑩⑪----|
42
①③口① |①---|
口口⑤口 |----|
①④口① |②-③-|
口口②口 |④-⑤-|
43
口③①口 |①---|
②口口④ |②---|
③口口① |③---|
口②④口 |④---|
44
①②口① |①---|
口口口⑤ |----|
④口口口 |②-③-|
口口口③ |④-⑤-|
45
②④③① |①---|
口口口口 |②---|
口口口口 |③---|
④②①③ |④---|
46
口③口口 |①---|
口口⑤口 |----|
①④口① |②-③-|
口口②口 |④-⑤-|
47
口⑤①口 |①-②-|
③④⑧⑦ |③-④-|
⑤⑥②① |⑤-⑥-|
口③⑦口 |⑦-⑧-|
48
①②口① |①---|
口口口⑤ |----|
④口口口 |②-③-|
口口口③ |④-⑤-|
49
③⑦⑤① |①-②-|
口⑧⑥口 |③-④-|
口④②口 |⑤-⑥-|
⑦③①⑤ |⑦-⑧-|
50
⑦⑨口⑥ |①-②③|
⑤口⑪④ |④⑤⑥⑦|
③⑩①② |⑧-⑨-|
口口⑧口 |⑩-⑪-|
51
口⑤①口 |①-②-|
③④⑧⑦ |③-④-|
⑤⑥②① |⑤-⑥-|
口③⑦口 |⑦-⑧-|
52
①―<口 |①|
口口口口
口口口口
口>―①

②⑦⑤③ |②--|
⑦④口⑥ |③-④-|
⑤口④口 |⑤-⑥-|
③⑥口② |⑦---|
53
①口口口 |①--②|
口口口口 |--③-|
③②口③
②口口①

⑧⑦⑥⑤
口④⑤口
口口④口 |-④--|
口口口口 |⑤⑥⑦⑧|
54
口口口口 |①---|
⑩⑥⑨⑥ |②③④⑤|
⑤⑧④⑦ |⑥---|
①③①② |⑦⑧⑨⑩|
55
②①③① |①---|
口④口⑤ |②③④⑤|
口口口口
口口口口

口⑨口⑩
⑦口⑧口
口口口口 |⑥---|
⑥口⑥口 |⑦⑧⑨⑩|
56
③⑧口⑨ |①---|
⑥口⑦④ |②-③-|
②口口口 |④-⑤-|
口①⑤① |⑥⑦⑧⑨|
57
口口②口 |①---|
口口口口 |②---|
口口②口
口①口①

③⑦口口
④⑧口口
⑤⑨口口 |③④⑤⑥|
⑥⑩口口 |⑦⑧⑨⑩|
58
③④口口 |①---|
⑤⑥>① |②---|
口口②① |③-④-|
口口口口 |⑤-⑥-|
59
③④口口 |①---|
⑤⑥口口 |②---|
口口②口 |③-④-|
口口①口 |⑤-⑥-|
60
∨口口口 |①---|
|口口① |②---|
①口口②
口口口口

口口③④
口口⑤⑥
口口口口 |③-④-|
口口口口 |⑤-⑥-|
61
③④口口 |①---|
⑤⑥口口 |②---|
①口②口 |③-④-|
口>―① |⑤-⑥-|
62
③④口∨ |①---|
⑤⑥口| |②---|
口口口① |③-④-|
口②口① |⑤-⑥-|
63
③④∨口 |①---|
⑤⑥|口 |②---|
口口①① |③-④-|
口②口口 |⑤-⑥-|
64
口∨③④ |①---|
口|⑤⑥ |②---|
口①①口 |③-④-|
口口②口 |⑤-⑥-|
65
∨口③④ |①---|
|口⑤⑥ |②---|
①①口口 |③-④-|
口②口口 |⑤-⑥-|
66
③④口口 |①-②-|
④③⑥口 |③---|
①⑥②⑥ |④-⑤-|
⑤②①① |⑥---|
67
②④③① |①---|
口口口口 |②---|
口口口口 |③---|
④②①③ |④---|
68
⑥口⑥⑤ |①-②-|
①⑥③口 |③---|
①③④③ |④-⑤-|
口②口口 |⑥---|
69
⑨口口⑫ |①-②③|
⑧口口⑪ |④-⑤⑥|
⑦⑤⑥⑩ |⑦-⑧-⑨-|
④②③① |⑩-⑪-⑫-|
70
口口③口 |①-②-|
④口口口 |③---|
⑤⑥③⑥ |④-⑤-|
④①②① |⑥---|
71
③⑥③口 |①-②-|
⑤④⑤口 |③-④-|
口⑦②⑦ |⑤-⑥-|
口①⑧① |⑦-⑧-|
72
⑪⑩⑨⑧ |①-②-|
⑦⑥⑤④ |③---|
③口③口 |④⑤⑥⑦|
①②口① |⑧⑨⑩⑪|
73
口口口口 |①---|
口口口口 |----|
口口口口
口①①口

口口口口
⑦③②⑥
口口口口 |②③④⑤|
⑤⑨⑧④ |⑥⑦⑧⑨|
74
⑤④③② |①---|
⑨⑥⑥⑦ |②③④⑤|
口①①口 |⑥-⑦⑧|
⑩口口⑧ |-⑨⑩-|
75
⑤⑨⑦③ |①-②③|
口⑥⑥口 |④⑤--|
④⑩⑧② |⑥-⑦⑧|
口①①口 |-⑨⑩-|
76
口口口① |①②③④|
⑥口口⑤ |⑤⑥⑦⑧|
④口口③
②⑧口⑦

⑯⑫⑨⑮
口⑩⑪口
口⑭⑬口 |⑨⑩⑪⑫|
口口口口 |⑬⑭⑮⑯|
77
口⑦⑫口 |①-②-③-|
③⑧⑪⑥ |④-⑤-⑥-|
②⑨⑩⑤ |⑦-⑧-⑨-|
①口口④ |⑩-⑪-⑫-|
78
⑦口口⑤ |①---|
④口口⑥ |②-③-|
②④口③ |④--⑤|
①口①口 |⑥-⑦-|
79
口口口口 |①②③④|
⑦⑧口口 |⑤⑥⑦⑧|
口⑥⑤④
③②①口

⑫⑪⑩⑨
口口口口
口口口口 |⑨⑩⑪⑫|
⑯⑮⑭⑬ |⑬⑭⑮⑯|
80
口口⑤口 |①--②|
②口①⑤ |③-④-|
③口④① |⑤---|
⑦口口⑥ |⑥-⑦-|
81
④⑦⑨② |①-②-|
⑦③①⑨ |③-④-|
③⑧⑥① |⑤-⑥⑦|
口⑤⑤口 |-⑧⑨-|
82
口⑦⑧② |①-②-|
⑨⑥⑥口 |③-④⑤|
④⑧口③ |⑥-⑦-|
①口⑤① |⑧-⑨-|
83
②⑧⑦口 |①-②-|
口⑥⑥⑨ |③-④⑤|
③口⑧④ |⑥-⑦-|
①⑤口① |⑧-⑨-|
84
③⑦⑤① |①-②-|
口⑥口⑧ |③-④-|
口②口④ |⑤-⑥-|
⑦③①⑤ |⑦-⑧-|
85
③⑦⑤① |①-②-|
口⑥口口 |③-④-|
①②③④ |⑤-⑥-|
⑦③①⑤ |⑦---|
86
④口口② |①-②-|
⑩⑪⑫⑬ |③-④-|
⑥⑦⑧⑨ |⑤---⑥⑦⑧⑨|
口③①⑤ |----⑩⑪⑫⑬|
87
④口口② |①-②-|
⑩⑪⑫⑬ |③-④-|
⑥⑦⑧⑨ |⑤---⑥⑦⑧⑨|
①③口⑤ |----⑩⑪⑫⑬|
88
④口⑤③ |①②③④|
口口口口 |⑤⑥⑦⑧|
⑧口口口
⑥②①⑦

口⑩口口
口⑭⑬口
口⑫⑨⑪ |⑨⑩⑪⑫|
口⑯⑮口 |⑬⑭⑮⑯|
89
口口口口 |①-②-|
②口口① |③-④-|
④口口口
③口口口

⑧⑨⑩⑤
口口⑥⑩
口⑦口⑨ |⑤-⑥-⑦-|
口口口⑧ |⑧-⑨-⑩-|
90
口口口口 |----|
>①∨口 |①---|
①口①口 |----|
∧①<口 |----|
91
口口口口 |----|
口口口口 |----|
口口口口 |----|
口口口口 |----|
92
口口口口 |----|
口口口口 |----|
口口口口 |----|
口口口口 |----|
93
口口口口 |----|
口口口口 |----|
口口口口 |----|
口口口口 |----|
94
口口口口 |①---|
口①口口 |----|
①口①口 |----|
口①口口 |----|

不確定度: 0

最終更新:2017年08月03日 01:14