アットウィキロゴ

じもとっこスイーツ♪
ホララ・ホリック with 日向美ビタースイーツ♪

BASIC

Level: 2
BPM: 108
Notes: 155

1
口口口口 |----|
口口口口 |----|
口口口口 |----|
口口口口 |----|
2
口口口口 |①---|
口口口口 |----|
①②口口 |②---|
口口口口 |----|
3
口口口口 |①---|
口口口口 |----|
口口①② |②---|
口口口口 |----|
4
口口口口 |①---|
口②①口 |----|
口口口口 |②---|
口口口口 |----|
5
口口口口 |①---|
②③口口 |----|
口①①口 |②---|
口口口口 |③---|
6
口口口口 |①---|
口口①口 |----|
口口口口 |----|
口口口口 |----|
7
口口口① |①---|
口口口② |②---|
口口口③ |③---|
口口口④ |④---|
8
口口口口 |①---|
口口口口 |②---|
口②①口 |③---|
口口③口 |----|
9
①口口口 |①---|
②口口口 |②---|
③口口口 |③---|
④口口口 |④---|
10
口口口口 |①---|
口口口口 |②---|
口①②口 |③---|
口③④口 |④---|
11
口口口口 |①---|
口口口口 |----|
口①①口 |②---|
口③②口 |③---|
12
口口口口 |①---|
口③②口 |----|
口①①口 |②---|
口口口口 |③---|
13
口①①口 |①---|
口③②口 |----|
口口口口 |②---|
口口口口 |③---|
14
口②①口 |①---|
口③③口 |②---|
口④④口 |③---|
口口口口 |④---|
15
口口口口 |①---|
口口②① |②---|
④③口口 |③---|
口口口口 |④---|
16
口口口口 |①---|
口口口口 |②---|
口③③口 |③---|
口①②口 |----|
17
口口口口 |①---|
口口口口 |----|
口口③② |②---|
口①①口 |③---|
18
口口口口 |①---|
口口口口 |----|
口①口口 |----|
口口口口 |----|
19
口口口口 |----|
口口口口 |----|
口②③口 |--①-|
①口口口 |②-③-|
20
口口口口 |①---|
口口口① |②---|
口口口② |③---|
口口④③ |④---|
21
口口口口 |①---|
口口口口 |②---|
口③③口 |③---|
②①口口 |----|
22
口口口口 |①---|
④③②① |②---|
口口口口 |③---|
口口口口 |④---|
23
口口口口 |①---|
口口口口 |②---|
①②③④ |③---|
口口口口 |④---|
24
口口口口 |①---|
口口口口 |②---|
口口口口 |③---|
④③②① |④---|
25
口口口口 |①---|
口口口口 |②---|
①②③口 |③---|
口口口口 |----|
26
口口②口 |①---|
口口口① |----|
口口口口 |②---|
口口口口 |----|
27
口①口口 |①---|
②口口口 |----|
口口口口 |②---|
口口口口 |----|
28
口口口口 |①---|
口口口口 |----|
口①①口 |----|
口口口口 |----|
29
口口口口 |①---|
口口口口 |②---|
口口口口 |③---|
④③②① |④---|
30
口口口口 |①---|
口口口口 |②---|
口①①口 |----|
口②②口 |----|
31
口口口口 |①---|
口口口口 |②---|
①②③④ |③---|
口口口口 |④---|
32
口口②② |①---|
口①①口 |②---|
口口口口
口口口口

③③口口
口④④口
口口口口 |③---|
口口口口 |④---|
33
口口口口 |①---|
④③②① |②---|
口口口口 |③---|
口口口口 |④---|
34
口①①口 |①---|
口②②口 |②---|
口口口口 |----|
口口口口 |----|
35
口口口口 |①---|
①②③④ |②---|
口口口口 |③---|
口口口口 |④---|
36
口②①口 |①---|
口口③口 |②---|
口口口口 |③---|
口口口口 |----|
37
口口口口 |①---|
④③②① |②---|
口口口口 |③---|
口口口口 |④---|
38
口口口口 |①---|
口口口口 |②---|
口①②口 |③---|
口③口口 |----|
39
口口口口 |①---|
口口口口 |②---|
口②④口 |③---|
口①③口 |④---|
40
口口口口 |①---|
口②④口 |②---|
口①③口 |③---|
口口口口 |④---|
41
口①①口 |①---|
口②②口 |----|
口口口口 |②---|
口口口口 |----|
42
口口口口 |----|
口口③② |①---|
口①①口 |②---|
口口口口 |③---|
43
口口口口 |①---|
口①口口 |----|
口口口口 |----|
口口口口 |----|
44
口口口口 |----|
②③口口 |①---|
口①①口 |②---|
口口口口 |③---|
45
口口口口 |①---|
口口①口 |----|
口②②口 |②---|
口口口口 |----|

不確定度: 0

最終更新:2017年03月29日 17:17