アットウィキロゴ

Lost wing at.0
猫叉Master+

EXTREME

Level: 9
BPM: 185
Notes: 690

1
口口口口 |----|
口口口口 |----|
口口口口 |----|
口口口口 |----|
2
口③④口 |①---|
①⑤⑥② |②---|
口⑦口口 |③④⑤⑥|
口口⑨⑧ |⑦-⑧⑨|
3
②口口口 |①---|
口口口口 |--②-|
口③口口 |----|
口①口口 |③---|
4
口③口① |--①-|
口口口口 |----|
口口②口 |②---|
口口口口 |③---|
5
①口口口 |①②③④|
⑥口②口 |⑤-⑥-|
③口口口
⑤口④口

⑪⑫口⑧
口⑨口口
口⑦口⑩ |⑦-⑧⑨|
口口口口 |⑩-⑪⑫|
6
口口①口 |①---|
③口口口 |--②-|
口口口口 |----|
口②口口 |③---|
7
口口口② |--①-|
口③口口 |--②③|
口口口④ |④---|
口口①口 |----|
8
⑤口②⑧ |①②③④|
口⑦口④ |⑤⑥⑦⑧|
口③口⑥
①口口口

口⑪口口
⑨口⑫口
⑭口⑩口 |⑨⑩⑪⑫|
⑮⑯口⑬ |⑬⑭⑮⑯|
9
口口口② |①---|
口口口口 |--②-|
口口口口 |----|
③口①口 |③---|
10
口①口② |--①-|
口口口③ |----|
口口④口 |②-③-|
口口⑤口 |④-⑤-|
11
口①口口 |①-②-|
口②口口 |③-④-|
③口口口
④口口口

口⑩口⑤
⑧口⑫⑪
口⑥口⑦ |⑤⑥⑦⑧|
口口口⑨ |⑨⑩⑪⑫|
12
口口口口 |①---|
口①口口 |--②-|
口口口③ |----|
②口口口 |③---|
13
口②①口 |--①-|
口③口口 |----|
口口口④ |②-③-|
口口⑥⑤ |④-⑤⑥|
14
口⑥④② |①-②-|
⑧⑦⑤③ |③-④-|
口⑨口口 |⑤-⑥-|
口①口口 |⑦-⑧-⑨-|
15
口口口口 |①--②|
口口③口 |--③-|
口口口② |----|
口口①④ |--④-|
16
口口口口 |-①--|
口口口② |②---|
口口①口 |----|
口口口口 |----|
17
①②③④ |--①②|
⑤⑥⑦⑧ |③④⑤⑥|
口口⑭⑬ |⑦⑧⑨⑩|
⑨⑩⑪⑫ |⑪⑫⑬⑭|
18
①口口② |①---|
口③口口 |②---|
口①④口 |--③-|
口口口口 |④---|
19
②口口口 |①---|
口口③① |②---|
口④口口 |--③-|
口口①口 |④---|
20
口①口口 |①---|
口③③口 |②---|
①④④口 |--③-|
口⑤⑤② |④-⑤-|
21
⑥⑦口口 |--①-|
口⑤口③ |②-③-|
②口④口 |--④-|
口口口① |⑤-⑥⑦|
22
口口①口 |①---|
口③口口 |②---|
口口④① |--③-|
②口口口 |④---|
23
②口口口 |①---|
口口③① |②---|
口④口口 |--③-|
口口①口 |④---|
24
口①口口 |①---|
口③③口 |②---|
①④④口 |--③-|
口⑤⑤② |④-⑤-|
25
⑧⑦⑥⑤ |--①-|
口口口③ |②-③-|
②④口口 |--④-|
口口口① |⑤⑥⑦⑧|
26
口口口口 |①---|
①⑤④口 |②-③-|
⑥口口③ |④⑤-⑥--|
⑦口口② |⑦---|
27
⑦口口口 |①---|
①⑤④① |②-③-|
⑥口口③ |④⑤-⑥--|
口口口② |⑦---|
28
口⑥口⑦ |①---|
①口④① |②-③-|
口⑤口③ |④-⑤-|
口口口② |⑥-⑦-|
29
①口口口 |---①②③|
②口口⑤ |④-⑤-|
③口⑥口 |--⑥-|
④⑦口口 |--⑦-|
30
口口口口 |----|
口③④口 |①-②-|
②口口⑤ |③④-⑤--|
①口口⑥ |⑥---|
31
口口口⑥ |①---|
①④⑤① |②-③-|
③口口⑦ |④⑤-⑥--|
②口口口 |⑦---|
32
⑨口⑧口 |①-②③|
①⑥口① |④-⑤-|
⑤口⑦口 |⑥-⑦-|
④③②口 |⑧-⑨-|
33
口口口① |---①②③|
口口⑦② |④-⑤-|
口⑥口③ |--⑥-|
⑤口口④ |--⑦-|
34
口①口口 |①---|
口口口口 |②---|
①口口口
口口口②

⑤⑥口口
口③口口
口口④口 |--③-|
口口口口 |④-⑤⑥|
35
口口①口 |①---|
口口③口 |②---|
口④口① |--③-|
②口⑥⑤ |④-⑤⑥|
36
口口口② |①---|
①口口口 |②---|
口口口口
口①口口

口口口口
口③③口
口④④口 |--③-|
口⑤⑤口 |④-⑤-|
37
⑤⑥⑦口 |--①-|
口口口③ |②-③-|
②口④口 |--④-|
口口口① |⑤⑥⑦-|
38
口口口② |①---|
①口口口 |②---|
口口口口
口①口口

口口口口
口③口口
口口④口 |--③-|
⑤⑥口口 |④-⑤⑥|
39
②口⑥⑤ |①---|
口口③① |②---|
口④口口 |--③-|
口口①口 |④-⑤⑥|
40
口①口口 |①---|
口③③口 |②---|
①④④口 |--③-|
口⑤⑤② |④-⑤-|
41
④口口④ |--①-|
③口口③ |--②-|
②口口② |--③-|
①口口① |--④-|
42
口③口口 |①②③④|
口口⑥口 |⑤⑥⑦⑧|
⑦①④⑧
⑤口口②

口口⑩⑭
⑪⑬口口
口⑮口口 |⑨⑩⑪⑫|
口⑨⑫⑯ |⑬⑭⑮⑯|
43
⑤①⑧⑫ |①②③④|
⑨⑪⑭④ |⑤⑥⑦⑧|
⑬⑮②⑥ |⑨⑩⑪⑫|
③⑦⑩⑯ |⑬⑭⑮⑯|
44
口①④口 |①--②|
④⑤口① |--③-|
口口②⑤ |----|
②③③口 |④--⑤|
45
口②⑪口 |--①-|
⑩⑧⑤③ |--②③|
⑥①①⑨ |④⑤⑥⑦|
口④口⑦ |⑧⑨⑩⑪|
46
③口口口 |①--②|
口口口口 |--③-|
口②⑤口 |----|
①口口④ |④--⑤|
47
口口口① |--①-|
口口口口 |----|
口口口口 |----|
口口口口 |----|
48
口口③口 |①--②|
口口口口 |--③-|
④口口① |----|
口⑤②口 |④--⑤|
49
口①口口 |--①-|
口口口口 |----|
口口口口 |----|
口口口口 |----|
50
③口口口 |①--②|
口口口口 |--③-|
口②⑤口 |----|
①口口④ |④--⑤|
51
口口口① |--①-|
口口口口 |----|
口口口口 |----|
口口口口 |----|
52
④口口③ |①--②|
口⑤口口 |--③-|
口口②口 |----|
口口口① |④--⑤|
53
口②⑥口 |--①-|
口口口③ |--②-|
口口口口 |③-④-|
①④口⑤ |⑤-⑥-|
54
③口口口 |①--②|
口口口口 |--③-|
口②⑤口 |----|
①口口④ |④--⑤|
55
口口口① |--①-|
③口口口 |----|
口口口口 |②---|
②口口口 |③---|
56
口口③口 |①--②|
口口口口 |--③-|
④口口① |----|
口⑤②口 |④--⑤|
57
口①口口 |--①-|
口口口口 |----|
口口口② |----|
口口口③ |②-③-|
58
③口口口 |①--②|
口口口④ |--③-|
口②⑥口 |--④-|
①⑤①⑤ |⑤--⑥|
59
口口口① |--①-|
口②②口 |--②-|
口口口口 |----|
口③③口 |③---|
60
口③③口 |①--②|
②⑥⑦① |--③-|
⑦①②⑥ |--④⑤|
口口⑤④ |⑥--⑦|
61
①口口① |--①-|
④口口③ |--②-|
口②②口 |③-④-|
⑥口口⑤ |⑤-⑥-|
62
口③③口 |①--②|
⑥④⑤⑦ |--③-|
②口口① |--④⑤|
⑦①②⑥ |⑥--⑦|
63
①口口① |--①-|
口口口口 |----|
口①①口 |----|
②③口口 |--②③|
64
①⑦口⑧ |①-②③|
口④③② |④-⑤-|
⑨⑩口⑤ |⑥-⑦-|
口⑧①⑥ |⑧-⑨⑩|
65
②⑧⑦⑥ |①-②-|
③口⑨⑤ |③-④-|
口口①口 |⑤-⑥⑦|
⑤口口④ |⑧-⑨-|
66
③口口口 |①-②-|
⑦口口⑨ |③-④⑤|
⑧②①③ |⑥-⑦-|
④⑤⑥口 |⑧-⑨-|
67
口⑦⑥④ |①-②-|
⑤①④⑧ |③-④-|
⑦③②⑥ |⑤-⑥-|
③⑤⑧口 |⑦-⑧-|
68
①口口口 |①---|
口口口口 |----|
口口口口
口口口①

口口口口
口口口口
口口口口 |----|
口口③② |--②③|
69
⑦④⑦④ |①-②-|
口⑥③口 |③-④-|
⑤②⑤② |⑤-⑥-|
口①口口 |⑦---|
70
口口口口 |----|
口口口口 |----|
口口口口 |----|
口口口口 |----|
71
口④②④ |----|
①口口口 |①-②-|
④口④① |③---|
③②口③ |④---|
72
①⑦口⑧ |①-②③|
口④③② |④-⑤-|
⑨⑩口⑤ |⑥-⑦-|
口⑧①⑥ |⑧-⑨⑩|
73
②⑧⑦⑥ |①-②-|
③口口⑤ |③-④-|
口⑨①口 |⑤-⑥⑦|
⑤口口④ |⑧-⑨-|
74
④⑨口⑤ |①-②-|
⑥⑦⑧口 |③-④-|
②口①③ |⑤-⑥⑦|
口口口口 |⑧-⑨-|
75
⑦口⑦口 |①-②-|
口口口② |③-④⑤|
口⑥⑤④ |⑥-⑦-|
⑧③⑧① |⑧---|
76
口口口口 |----|
口口口口 |----|
口口口口 |----|
①②口口 |--①②|
77
④⑦④⑦ |①-②-|
口③⑥口 |③-④-|
②⑤②⑤ |⑤-⑥-|
口口①口 |⑦---|
78
口口口① |----|
②口口口 |----|
口口口口 |----|
口口口口 |--①②|
79
④口④口 |①---|
口④口口 |--②③|
口口①③ |④---|
②①口① |----|
80
④①口口 |①-②-|
①④口⑧ |③-④-|
口⑦⑥⑤ |⑤-⑥-|
⑦口③② |⑦-⑧-|
81
口⑤口口 |①-②-|
口③①口 |----|
②口口口 |③-④-|
口②④⑥ |⑤-⑥-|
82
①口⑧⑥ |①-②-|
③口口④ |③-④-|
⑤⑨口② |⑤-⑥-|
⑦口口口 |⑦-⑧⑨|
83
②③口⑦ |①-②-|
⑤⑥⑦口 |③-④-|
⑧口④① |⑤-⑥-|
口口①④ |⑦-⑧-|
84
③口②口 |①-②-|
⑥口口② |--③④|
口①⑦④ |⑤-⑥-|
⑤⑧口口 |⑦-⑧-|
85
④③②① |①②③④|
⑧⑦⑥⑤ |⑤⑥⑦⑧|
⑫⑪⑩⑨ |⑨⑩⑪⑫|
⑯⑮⑭⑬ |⑬⑭⑮⑯|
86
①①⑥③ |①-②-|
④④②⑤ |③-④-|
⑦⑦口口 |⑤-⑥-|
口口⑧口 |⑦-⑧-|
87
口③口口 |①-②-|
口④口口 |----|
口口口① |③---|
②②口口 |④---|
88
⑧⑩⑦⑪ |①---|
⑫⑥⑤⑨ |②-③④|
④①口③ |⑤⑥⑦⑧|
口②口口 |⑨⑩⑪⑫|
89
口⑧口口 |①-②-|
口口⑦⑦ |③-④-|
⑤②④④ |⑤-⑥-|
③⑥①① |⑦-⑧-|
90
口⑥②② |①-②-|
①口⑦⑤ |----|
③口口口 |③-④-|
口口④口 |⑤-⑥⑦|
91
口③③口 |①---|
④口口④ |----|
⑤②②⑤ |②---|
①口口① |③-④-⑤-|
92
口口口口 |①---|
口口口口 |----|
口口口口 |----|
口①①口 |----|

不確定度: 0

最終更新:2017年06月24日 03:15