アットウィキロゴ

がんばれゴエモン ~ビーストメドレー~
96

BASIC

Level: 3
BPM: 113-190
Notes: 188

BPM: 151
1
口口口口 |----|
口口口口 |----|
口口口口 |----|
口口口口 |----|
2
口口口口 |①---|
口①②口 |----|
口口口口 |②---|
口口口口 |----|
3
③口口③ |①---|
口口口口 |----|
口②②口 |②---|
口①口口 |③---|
4
口②口口 |①---|
口①口口 |----|
口口口口 |②---|
口口口口 |----|
5
口口②② |①---|
口口①口 |----|
口口口口 |②---|
口口口口 |----|
6
口口口口 |①---|
口口口口 |----|
口②口口 |②---|
口①口口 |----|
7
口口口口 |①---|
口口口口 |----|
口口②② |②---|
口口①口 |----|
8
②口口② |①---|
口口口口 |----|
口口口口 |②---|
口①①口 |----|
9
口口口口 |①---|
口①②口 |----|
口口口口 |②---|
口口口口 |----|
10
③口口③ |①---|
口口口口 |②---|
口②②口 |③---|
口①①口 |----|
11
口②口口 |①---|
口①口口 |----|
口口口口 |②---|
口口口口 |----|
12
口口②② |①---|
口口①口 |----|
口口口口 |②---|
口口口口 |----|
13
口口口口 |①---|
口口口口 |----|
口②口口 |②---|
口①口口 |----|
14
口口口口 |①---|
口口口口 |----|
口口②② |②---|
口口①口 |----|
15
②口口② |①---|
口口口口 |----|
口口口口 |②---|
口①①口 |----|
16
口口口口 |①---|
口①②口 |----|
口口口口 |②---|
口口口口 |----|
17
③口口③ |①---|
口口口口 |②---|
口②②口 |③---|
口①①口 |----|
18
口口口口 |①---|
②口口④ |②---|
①口口③ |③---|
口口口口 |④---|
19
口口口口 |①---|
口①①口 |----|
口②②口 |②---|
口口口口 |----|
20
口口口口 |①---|
①②③④ |②---|
口口口口 |③---|
口口口口 |④---|
21
口口口口 |①---|
口口口口 |②---|
④③②① |③---|
口口口口 |④---|
22
口口口口 |①---|
口①①口 |----|
口②②口 |②---|
口口口口 |----|
23
口口口口 |①---|
②口口④ |②---|
①口口③ |③---|
口口口口 |④---|
24
口①口口 |①---|
口口②口 |②---|
口③口口 |③---|
口口④口 |④---|

BPM: 113
25
口口口口 |①---|
口①②口 |----|
口口口口 |②---|
口口口口 |----|
26
口口口口 |①---|
口口口口 |----|
口②①口 |②---|
口口口口 |----|
27
口口口口 |①---|
②口口口 |----|
①口口口 |②---|
口口口口 |----|
28
①②口口 |①---|
口口口口 |----|
口口口口 |②---|
口口口口 |----|
29
口口①② |①---|
口口口口 |----|
口口口口 |②---|
口口口口 |----|
30
口口口口 |①---|
口口口① |----|
口口口② |②---|
口口口口 |----|
31
口口口口 |①---|
口口口口 |----|
口口口口 |②---|
口口②① |----|
32
口口口口 |①---|
口口口口 |----|
口口口口 |②---|
②①口口 |----|
33
口⑧⑦口 |①-②-|
口口⑥⑤ |③-④-|
①②③④ |⑤-⑥-|
口口口口 |⑦-⑧-|
34
口口口口 |①-②-|
②①口口 |③-④-|
③④口⑤ |⑤---|
口口口⑤ |----|

BPM: 190
35
口口口口 |①---|
口口口口 |----|
口②②口 |②---|
口①①口 |----|
36
口②②口 |①---|
口①①口 |----|
口口口口 |②---|
口口口口 |----|
37
①口口① |①---|
②口口② |----|
口口口口 |②---|
口口口口 |----|
38
口口口口 |①---|
口口口口 |----|
①③③① |②---|
②口口② |③---|
39
口口口口 |①---|
①②口口 |----|
口口口口 |②---|
口口口口 |----|
40
口口口口 |①---|
口口①② |----|
口口口口 |②---|
口口口口 |----|
41
口口口口 |①---|
口口口口 |----|
口口②① |②---|
口口口口 |----|
42
口口口口 |①---|
②口口口 |----|
②①口口 |②---|
口口口口 |----|
43
口②④口 |①---|
口口口口 |②---|
口①③口 |③---|
口口口口 |④---|
44
口口口口 |①---|
口①①口 |----|
口②②口 |②---|
口口口口 |----|
45
①口口① |①---|
②口口② |----|
口口口口 |②---|
口口口口 |----|
46
口口口口 |①---|
口口口口 |----|
①口口① |②---|
②口口② |----|
47
口②口口 |①---|
口①口口 |----|
口口口口 |②---|
口口口口 |----|
48
口口②② |①---|
口口①口 |----|
口口口口 |②---|
口口口口 |----|
49
口口口口 |①---|
口口口口 |----|
口②口口 |②---|
口①口口 |----|
50
口口口口 |①---|
口口口口 |----|
口口②② |②---|
口口①口 |----|
51
口②口口 |①---|
口①口口 |----|
口口口口 |②---|
口口口口 |----|
52
口口②② |①---|
口口①口 |----|
口口口口 |②---|
口口口口 |----|
53
口口口口 |①---|
口口口口 |----|
口②口口 |②---|
口①口口 |----|
54
口口口口 |①---|
口口口口 |----|
口口②② |②---|
口口①口 |----|
55
口口口口 |①---|
口①②口 |----|
口口口口 |②---|
口口口口 |----|
56
③口口③ |①---|
口口口口 |②---|
口②②口 |③---|
口①①口 |----|
57
口口口口 |①---|
口①②口 |----|
口口口口 |②---|
口口口口 |----|
58
③口口③ |①---|
口口口口 |②---|
口②②口 |③---|
口①①口 |----|

不確定度: 0

最終更新:2017年08月15日 01:14