アットウィキロゴ

Ausretious#1-まどろみ、或いは嘆色の夢- [2]
EOOZ

EXTREME

Level: 10
BPM: 168
Notes: 751

1
口口口口 |----|
口口口口 |----|
口口口口 |----|
口口口口 |----|
2
①口口口 |--①-|
口口口口 |--②-|
口口口口
口口②口

∨口口④
|③口口
|口口口 |③---|
⑤口口口 |④-⑤-|
3
口口口口 |----|
口口③口 |①---|
口口②口 |②---|
口口①口 |③---|
4
④口口口 |①---|
口③口口 |②---|
口口②口 |③---|
口口口① |④---|
5
口④口口 |①---|
口口③口 |②---|
口②口口 |③---|
⑤口①口 |④-⑤-|
6
②><② |①-②-|
口口口口
口口口口
口口口①

③口口③
>④④< |--③-|
口③③口 |④---|
口口口口

∨口口∨
⑥⑤⑤⑥
口口口口
⑤口口⑤ |⑤-⑥-|
7
口口口口 |①---|
口口③口 |--②-|
口②②口 |----|
口①①口 |--③-|
8
口口口口 |①---|
口①口口 |----|
口口②口 |----|
口③口口 |--②③|
9
口口口口 |①---|
口②②口 |--②-|
口口口口 |----|
口③①口 |--③-|
10
②><② |①-②-|
①口口①
口口口口
口口①口

③口口③
>④④< |--③-|
口③③口 |④---|
口口口口

∨口口∨
⑥⑤⑤⑥
口口口口
⑤口口⑤ |⑤-⑥-|
11
口口口口 |--①-|
口⑥口口 |②-③-|
口①⑤③ |--④-|
口④②口 |⑤-⑥-|
12
口口口口 |----|
口口口口 |①-②-|
口口口口 |----|
③④②① |③-④-|
13
口口口口 |①---|
口口口口 |----|
口口①口 |②---|
口口②口 |----|
14
口⑤④口 |①②③④|
①③⑥① |⑤⑥⑦⑧|
口⑦②口
口①⑧口

⑬口口⑯
⑮口口⑭
⑪口口⑩ |⑨⑩⑪⑫|
⑨口口⑫ |⑬⑭⑮⑯|
15
口①⑧口 |①-②-|
口口④⑥ |③-④-|
口口③⑤ |⑤-⑥-|
口②口⑦ |⑦-⑧-|
16
①⑧口⑥ |①-②-|
口②口口 |③-④-|
③⑤口⑦ |⑤-⑥-|
口口④口 |⑦-⑧-|
17
①口口⑧ |①-②-|
口②⑦口 |③-④-|
口口④⑥ |⑤-⑥-|
③⑤口口 |⑦-⑧-|
18
①口口口 |①-②-|
口口口④ |③-④-|
口口②口
③口口口

⑧口⑥口
口口口口
口口口口 |⑤-⑥-|
口⑦口⑤ |⑦-⑧-|
19
口口口① |①---|
⑥口③⑦ |②-③④|
口④口口 |⑤-⑥-|
②口⑤口 |⑦---|
20
口①―< |①---|
口口口口 |----|
口口口口
口口口口

口②口口
口口口口
②―<口 |②---|
口口口口

③―<口
口口口口
③口口口
口口口口 |③---|
21
①口口口 |①---|
口①―<
口口口口
口口口口

口口②口
口②|口 |②---|
口口∧口
口口口口

口口③口
口口口口
口口③< |----|
口口口口 |③---|
22
口口口① |①---|
口口口∧
口口①口
口口口口

口口口②
口>―③ |--②-|
口口口② |③---|
口口口口 |----|
23
口口口口 |①---|
口口口①
口口口口
口>―①

口口口口
口口口口 |②---|
>―②口
口口口②

口口口口
口口口口
口口③口 |③---|
>―③口

口口口口
口口口口
>④口口
口口④口 |④---|
24
①②口口 |----|
口口③口 |--①-|
口②口口 |②---|
口口口口 |--③-|
25
口口口口 |①---|
口①―< |----|
口口口口
口口口口

口口口口
口②口口
②―<口 |②---|
口口口口

口口口口 |③---|
③―<口
③口口口
口口口口

口口口口
④口口口 |④---|
口④―<
口口口口
26
口口①< |①---|
口口口口 |----|
口①口口
口口口口

口口②口
口口口口
口口②< |②---|
口口口口

口口口∨ |③---|
口口口③ |--④-|
口口③口
口口口④
27
口口口口 |①-②-|
>―③② |③---|
口口口口
口口①口

口口口口
口口④口
>―④口 |④---|
口口口口

>⑤口口 |⑤---|
口口口口
口口⑤口
口口口口

口⑥口口
口口口口 |⑥---|
>⑥口口
口口口口
28
∨口口口 |①---|
①口口口 |②---|
口①口口 |③---|
②③口口

口口口口 |④---|
口口口口 |⑤---|
④⑤口口
口口口口
29
口①―< |①---|
①口口口 |②---|
口口口口
口口②①

口③口口
口口口口
③―<口 |③---|
口③口口

④―<口 |④---|
口口口口
④口口口
④口口口

⑤口口口
口⑤―< |⑤---|
口口口口
口口口⑤
30
口口①口 |①---|
口①|口 |②---|
口口∧口
口②①口

口口③口
口口口口
口口③< |③---|
③口口口

口口口④ |④---|
口口口|
口口④∧
口口口④

口口口⑥
口口口口 |⑤-⑥-|
口口口⑥
口口⑤口
31
①②口口 |①---|
口>―① |②---|
口口口口
口口口口

口口③口
口口口③
口口口口 |③---|
口>―③

口口口④ |④---|
口口口口
>―④口
口口口④

⑤口口口
口口口口 |⑤---|
口口⑤口
>―⑤口
32
口①②③ |①---|
口口口口 |②---|
>①口口 |③---|
口口①口

④⑤口口 |④---|
⑥口口口 |⑤-⑥-|
口④口口
口口口口
33
口口口口 |①---|
口①―< |②---|
口口口口
口口②①

口口口口
口③口口
③―<口 |③---|
口③口口

口口口口 |④---|
④―<口
④口口口
④口口口

口口口口
⑤口口口 |⑤---|
口⑤―<
口口口⑤
34
口口①< |①---|
口口口口 |②---|
口①口口
口②①口

口口③口
口口口口
口口③< |③---|
③口口口

口口口∨ |④---|
口口口④ |⑤-⑥-|
口口④⑥
口口⑤④
35
口口口口 |①---|
>―②① |②---|
口口口口
①②口口

口口口口
口口③口
>―③口 |③---|
口口③口

>④口口 |④---|
口口口口
口口④口
口口口④

口⑤口口
口口口口 |⑤---|
>⑤口口
⑤口口口
36
∨口口口 |①---|
①口口口 |②---|
口①口口 |③---|
口①②③

口口口口 |④---|
口口口口 |⑤---|
口口口口
④⑤口口
37
口口口口 |①-②-③-|
①③②口
口口口口
口口①口

④口口④
|口口| |④---|
|口口| |----|
∧口口∧

⑤口口⑤ |⑤---|
⑥><⑥ |⑥---|
口⑤⑤口
口口口口
38
口口口口 |①---|
①口口①
①><①
口口口口

>②②<
口口口口 |②---|
②口③② |③---|
口口口口

口口口口 |④---|
口④口口 |⑤---|
口⑤口口
口口口口
39
口②②口 |①---|
②口①② |②---|
口口口口 |③---|
>③③<

口口口口 |④---|
>④④<
口口口口
口④④口

口口口口
口⑤⑤口 |⑤---|
⑤><⑤
口口口口
40
>①①< |①--|
口口口口
①口口①
口口口口

口②②口 |-②-|
②口口②
口口口口
口口口口

③><③
口口口口 |③---|
口口口口 |----|
口口口口

④口口④ |④---|
口口口口
>④④<
口口口口

口⑤⑤口
口||口 |⑤---|
口⑤⑤⑥ |⑥---|
口∧∧口
41
口①①口 |①---|
>②②< |②---|
①口口口
口口口口

口口口口
口③③口
>③③< |③---|
口口口口

④><④ |④---|
口口口口
口④④口
口口口口

⑤口口⑤
口口口口 |⑤--|
⑤><⑤
口口口口

口口口口
⑥口口⑥ |-⑥-|
⑥口口⑥
口口口口
42
口口口口 |①---|
口口口口 |----|
口口口口
>①①<

口口口口
>②②<
口口口口 |②---|
口②②口

∨口口∨ |③---|
|③③| |④---|
|④口|
③口口③
43
口∨口口 |①---|
②┼<口 |----|
口|①口 |②---|
①②口①

口口∨口 |③---|
③>┼③
口口|口
口③③口

口∨∨口
口||④ |④---|
口④④口
口口④口
44
口口口口 |----|
∨口口∨ |----|
|①①| |①---|
①口口①

口口口口 |----|
口口口口 |----|
口口口口
口口口口
45
∨口口∨ |①-②-|
①⑤⑥① |③-④-|
口③④口 |⑤-⑥-|
①口②①

口口口口 |⑦-⑧-|
口口口口 |⑨-⑩-|
⑦口口⑧
口⑨⑩口
46
口口口口 |①-②-|
口口口口 |③-④-|
③①②④ |⑤-⑥-⑦-|
⑤⑥⑦口

口⑨口口 |⑧-⑨-|
⑧口口⑧ |⑩-⑪-|
口⑪⑩口
口口口⑧
47
②口口① |①-②-|
口④③口 |③-④-|
口口口口
口口口口

⑧口口⑦
口口口口
口口口口 |⑤-⑥-|
口⑥⑤口 |⑦-⑧-|
48
口口口口 |①-②-|
⑥⑤④③ |③-④-⑤-|
口②①口 |⑥-⑦-|
口⑦⑦口

口口⑨⑧ |--⑧⑨|
口口⑬⑫ |⑩⑪⑫⑬|
口口⑪⑩ |⑭---|
>――⑭
49
⑦⑧⑥⑥ |①-②-|
③④口口 |③-④-|
①②口口 |⑤-⑥-|
口⑤⑤⑤ |--⑦⑧|
50
口口⑧⑦ |①②③④|
③④口口 |⑤---|
①②口⑥ |⑥---|
⑤――< |⑦-⑧-|
51
口④口口 |①-②-|
⑤口②① |③-④⑤|
口口口口
③口口③

口口⑦⑩
口⑧⑪口
口⑥⑨口 |⑥-⑦⑧|
口口口口 |⑨-⑩⑪|
52
口⑤⑧⑪ |①-②-③-|
⑥⑨⑫口 |④-⑤⑥|
④⑦⑩① |⑦-⑧⑨|
口③②口 |⑩-⑪⑫|
53
口⑤⑧口 |①-②-③-|
⑥⑨口口 |④-⑤⑥|
④⑦口① |⑦-⑧⑨|
口③②口
54
口⑤⑧② |①-②③|
⑥⑨③口 |④-⑤⑥|
口口①④ |⑦-⑧⑨|
口⑦口口
55
口⑤⑧② |①-②③|
口口③口 |④-⑤⑥|
⑥⑨口口 |⑦-⑧⑨|
口⑦①④
56
口⑧口② |①-②-|
口口⑦口 |③-④-|
⑥口口④ |⑤-⑥-|
③口①⑤ |⑦-⑧-|
57
②―<口 |①-②-|
口口口口
口口口口
口①②口

④口口③
口⑤―< |③-④-|
口口④⑥ |⑤-⑥-|
口口口口

∨口⑧口
⑧⑦口口
口口口口
口口口⑦ |⑦-⑧-|
58
口⑦⑦④ |①-②-|
口⑥⑥④ |③-④-|
口③②⑤ |⑤-⑥-|
口③①⑧ |⑦-⑧-|
59
口口口口 |①-②-|
口口口③ |③-④-|
口②④口
①②④口

口口⑦口
口⑦⑥口
口口口⑤ |⑤-⑥-|
⑧口口⑥ |⑦-⑧-|
60
口④口③ |①-②-|
口⑦④② |③-④-|
口①⑥⑤ |⑤-⑥-|
口①⑦⑧ |⑦-⑧-|
61
②―<口 |①-②-|
①口口口
口口口口
口①口口

④口口③
>―⑤口 |③-④-|
⑥④④口 |⑤-⑥-|
口口口口

口口口∨
口口⑦⑧
口口口口
⑦口⑨⑦ |⑦-⑧⑨|
62
③口口口 |①-②-|
口②口口 |③-④-|
口④④口
口①口口

口口口口
⑦⑧口口
⑤口口口 |⑤-⑥-|
⑦口口⑥ |⑦-⑧-|
63
①口⑤口 |①-②-|
口⑧⑦口 |③-④-|
③④②口 |⑤-⑥-|
⑥④②口 |⑦-⑧-|
64
②⑤⑦口 |①-②-|
②⑦口口 |③-④-|
④③口口 |⑤-⑥-|
④⑧⑥① |⑦-⑧-|
65
⑤口口口 |①②③④|
③口②① |⑤⑥⑦⑧|
⑦①⑥④
口口口⑧

∨口口⑩
⑮⑨⑭口
口⑬口口 |⑨⑩⑪⑫|
⑪口⑫口 |⑬⑭⑮-|
66
口口⑤口 |①-②-|
口口口③ |③-④-|
口口②① |⑤-⑥-|
④⑥口口

口口∨口
口口⑦口
口口口⑧
口口口口 |⑦-⑧-|
67
口口口口 |①-②-|
口∨①②
口①口口
口口口口

口口口口
口口口口 |③-④-|
口③∨口
口口③④

口口口口
口口口口
口口口⑥ |⑤-⑥-|
>⑤⑤口

口口口口
口口∨⑧
口口⑦口
口⑦口口 |⑦-⑧-|
68
口口④口 |①-②-|
口∨口口 |③-④-|
口①①口
口口③②

口口口⑦
口口⑧⑥
口⑦口⑤ |⑤-⑥-|
口口口口 |⑦-⑧-|
69
口口口口 |①②③④|
①⑥口口 |⑤⑥⑦⑧|
⑧口①⑦
②④⑤③

⑭⑩⑨∨
口口⑪⑮
口⑫⑬口 |⑨⑩⑪⑫|
口⑯口口 |⑬⑭⑮⑯|
70
口⑤口口 |①-②-|
③口口口 |③-④-|
④⑥口口 |⑤-⑥-|
②口①口

口∨口口
口⑦口口
口口口口
⑧口口口 |⑦-⑧-|
71
口口口口 |①-②-|
①①<①
②口口口
口口口口

口口口口
③口④口 |③-④-|
口∨口口
口③口口

口口口口
口口口口
口口∨口 |⑤-⑥-|
口⑤⑤⑥

口口口口
口∨口口
⑧⑦口口
口口⑦口 |⑦-⑧-|
72
口口口口 |①-②-|
口口∨②
口①①口
口口口口

∨口口口
⑤③④⑧ |③-④-|
口口⑤口 |⑤-⑥-|
口⑦口⑥ |⑦-⑧-|
73
口④③∨ |①-②-|
①②口| |③-④-|
口口口①
口口口口

∨口口⑧
|口⑥口
⑤⑦口⑤ |⑤-⑥-|
口口口口 |⑦-⑧-|
74
口口口口 |①-②-|
①><① |③-④-|
①⑤②⑥ |⑤-⑥-|
③⑦⑧④ |⑦-⑧-|
75
口口口口 |①-②-|
口口口口 |③-④-|
⑤③④⑥ |⑤-⑥-|
①⑦⑧② |⑦-⑧-|
76
口口口口 |①-②-|
口口口口 |③-④-|
⑤③④⑥ |⑤-⑥-|
①⑦⑧② |⑦-⑧-|
77
口口口口 |①-②-|
口⑦⑧口 |③-④-|
⑤③④⑥ |⑤-⑥-|
①口口② |⑦-⑧-|
78
④③②① |①②③④--|
①口口① |----|
口口口口 |----|
①②③④ |----|

不確定度: 1

最終更新:2017年08月17日 00:22