アットウィキロゴ

Midnight City Warfare
sky_delta

EXTREME

Level: 10
BPM: 180
Notes: 951

1
口口口口 |----|
口口口口 |----|
口口口口 |----|
口口口口 |----|
2
口口口口 |----|
口口口口 |----|
口口口口 |----|
口口口口 |----|
3
①口①⑤ |①--②|
⑤口③口 |--③-|
口口口④ |-④--|
口③②⑥ |⑤--⑥|
4
⑨口口⑧ |--①-|
⑦①②① |--②-③④⑤-|
③④⑤口 |⑥-⑦-|
⑪⑥口⑩ |⑧⑨⑩⑪|
5
口①①⑤ |①--②|
口⑤③口 |--③-|
③口口④ |-④--|
口口②⑥ |⑤--⑥|
6
口④口口 |--①-|
口口③① |-②--|
口③②口 |③---|
口①口口 |④---|
7
①口①口 |①-②③|
口口⑤口 |④-⑤-|
④口口口
②⑤③口

⑩⑧口⑨
⑨口口口
口⑥口⑦ |⑥⑦⑧-|
口口口⑪ |⑨-⑩⑪|
8
口口口口 |①-②-|
口②④② |③④⑤-|
③⑤口口
①口口口

⑨口口⑧
⑦口口口
口口⑥口 |⑥-⑦-|
⑪⑥口⑩ |⑧⑨⑩⑪|
9
⑨①①⑨ |①-②③|
⑥④⑤口 |④-⑤-|
②⑧口⑦ |⑥⑦⑧-|
⑩⑤③⑪ |⑨-⑩⑪|
10
口①口口 |①-②-|
口⑤⑥② |③④⑤-|
②口④⑥ |⑥---|
⑦③口⑦ |⑦---|
11
①口①⑤ |①--②|
⑤口③口 |--③-|
口口口④ |-④--|
口③②⑥ |⑤--⑥|
12
⑨口口⑧ |--①-|
⑦①②① |--②-③④⑤-|
③④⑤口 |⑥-⑦-|
⑪⑥口⑩ |⑧⑨⑩⑪|
13
口①①⑤ |①--②|
口⑤③口 |--③-|
③口口④ |-④--|
口口②⑥ |⑤--⑥|
14
口④口口 |--①-|
口口③① |-②--|
口③②口 |③---|
口①口口 |④---|
15
①口①口 |①-②③|
口口⑤口 |④-⑤-|
④口口口
②⑤③口

⑩⑧口⑨
⑨口口口
口⑥口⑦ |⑥⑦⑧-|
口口口⑪ |⑨-⑩⑪|
16
口口口口 |①-②-|
口②④② |③④⑤-|
③⑤口口
①口口口

⑨口口⑧
⑦口口口
口口⑥口 |⑥-⑦-|
⑪⑥口⑩ |⑧⑨⑩⑪|
17
口①①口 |①-②③|
口④⑤口 |④-⑤-|
②⑤口口
口口③口

⑩口⑪⑧
⑥口口口
口口口⑦ |⑥⑦⑧-|
⑨⑧口⑨ |⑨-⑩⑪|
18
口①口⑦ |①-②-|
⑦⑤⑥② |③④⑤-|
②③④⑥ |⑥---|
口口口口 |⑦---|
19
①口∨口 |①-②③|
口④|③ |④-⑤-|
②口|口
口⑤①口

⑩口口口
⑨口口口
口⑧口⑦ |⑥⑦⑧-|
⑥口口⑪ |⑨-⑩⑪|
20
口①口口 |①-②-|
口②④③ |③-④-⑤⑥⑦-|
⑤⑥⑦口
口口口口

⑪口口⑩
⑨口口∨
口口口| |⑧-⑨-|
⑬⑧⑧⑫ |⑩⑪⑫⑬|
21
⑧②口口 |①-②③|
⑥⑨③⑪ |④-⑤-|
⑤④⑦① |⑥⑦⑧-|
⑩口口口 |⑨-⑩⑪|
22
口①口口 |①-②-|
⑥口④口 |③④⑤⑥|
③⑤口口
口②口⑤

⑨口⑧口
∨口口口
|口⑦口 |⑦-⑧-|
⑩口口口 |⑨-⑩-|
23
口口口① |①-②③|
口口口口
口③口②
口口口口

口口⑧口
⑦∨⑨⑩ |④-⑤-|
⑪|⑥口 |⑥⑦⑧-|
⑤⑤⑤④ |⑨-⑩⑪|
24
口口口① |①-②-|
口④口口 |③④⑤-|
口口口③
口口⑤②

⑧口⑥⑨
口口口口
口口⑦口 |⑥-⑦-|
⑩⑥口⑪ |⑧⑨⑩⑪|
25
口口口口 |①---|
∨口口口
①口口口
口口口口

口口口口
口口②口 |②-③-|
②∨口②
口③口口

口④口口
④口口口
口口∨口 |--④-|
口④⑤口 |⑤---|
26
①口口口 |①-②-|
口①口∨
口口口②
口口①口

口口口④
⑤口口口 |--③-|
口口⑥③ |④-⑤-|
③⑦口口 |⑥-⑦-|
27
口口口口 |①---|
口口口口 |----|
口口口口 |----|
口口口① |----|
28
③②①口 |----|
口口口口 |----|
口口口口 |①-②-|
口口口口 |③---|
29
口口口口 |----|
口口口① |①---|
口口口口 |--②-|
口②口口 |----|
30
口口③口 |①---|
①口口口 |--②-|
口口口口 |----|
口口②口 |③---|
31
①口口口 |①---|
②①口① |②---|
③口口口 |③---|
④口口口 |④---|
32
口①口① |①---|
口口口② |②---|
口③口③ |③---|
口口口④ |④---|
33
①⑤②⑧ |①-②-|
⑪③④⑫ |③-④-|
⑨口口⑥ |⑤⑥⑦⑧|
⑦口口⑩ |⑨⑩⑪⑫|
34
⑨⑦⑧⑩ |①②③④|
⑬⑤⑥⑬ |⑤⑥⑦⑧|
⑬③④⑬ |⑨⑩⑪⑫|
⑪①②⑫ |⑬---|
35
③②②⑤ |①---|
⑥②②口 |②-③-|
⑦②②口 |④-⑤-|
⑧①①④ |⑥⑦⑧-|
36
⑦⑩②⑪ |①②③④|
⑨⑤④口 |⑤--⑥|
口③口⑧ |⑦⑧⑨-|
⑪①⑩⑥ |⑩-⑪-|
37
口⑤②口 |①---|
④④①② |②-③-|
③①④④ |④--⑤|
口③⑥口 |--⑥-|
38
⑤⑥⑥⑥ |①-②-|
④口①③ |③-④-|
口②口口 |⑤---|
⑥⑥⑥⑤ |⑥---|
39
⑧⑨⑩⑪ |①---|
④⑤⑦⑥ |②③④⑤|
②③口① |⑥-⑦-|
口口⑦⑥ |⑧⑨⑩⑪|
40
⑩⑫⑪口 |①②③④|
⑤⑥⑫⑪ |⑤⑥⑦⑧|
④③②① |⑨-⑩-|
⑨口⑧⑦ |⑪-⑫-|
41
⑤⑦⑥② |①-②-|
口③⑧⑦ |③-④-|
⑥⑤④② |⑤-⑥-|
④①⑧③ |⑦-⑧-|
42
③④④① |①--②|
①②口口 |--③-|
口③③① |----|
②④④② |④---|
43
②口口口 |①---|
①④③① |②-③④|
①⑥⑤① |⑤⑥⑦-|
⑧⑨⑩⑦ |⑧⑨⑩-|
44
③①⑥④ |①-②-|
①③⑪② |③-④⑤|
⑤⑩⑧② |⑥⑦⑧-|
⑦口⑨⑧ |⑨⑩⑪-|
45
②①④③ |①---|
①②口口 |②-③④|
口口口口
口口口口

口⑪口口
口口⑩⑥
⑦口口口 |⑤⑥⑦⑧|
⑤⑨口⑧ |⑨⑩⑪-|
46
②口口③ |①-②-|
口③口口 |③-④-|
口②④①
④口①口

口口⑤口
⑦口⑥⑤
⑥口口⑧ |⑤-⑥-|
口⑧口⑦ |⑦-⑧-|
47
①①口口 |①---|
口③口口 |--②-|
口口口口 |----|
口口②口 |③---|
48
口口②口 |--①-|
口口口口 |----|
口口口口 |②---|
口口口① |----|
49
①口⑧② |①-②-|
⑨⑤口⑫ |③-④-|
⑪口⑥⑩ |⑤⑥⑦⑧|
③⑦口④ |⑨⑩⑪⑫|
50
①③⑦⑦ |①-②-|
口⑥⑤口 |③-④-|
口②口口 |⑤-⑥-|
④口⑦⑦ |⑦---|
51
①④⑧口 |①---|
②口⑥⑥ |②-③④|
③⑤②⑦ |⑤-⑥-|
口④⑧⑨ |⑦⑧⑨-|
52
口④口① |①---|
口②口口 |②-③④|
③口②口
①④口口

口口口⑧
⑥口口⑥
口⑤口⑨ |⑤-⑥-|
口口⑦⑧ |⑦⑧⑨-|
53
①④①口 |①---|
口②②口 |②-③④|
口口③口
口④口口

口口⑧口
口口口⑥
⑥⑤口⑦ |⑤-⑥-|
口口⑧口 |⑦⑧--|
54
⑤⑥⑥⑥ |①-②-|
①②④口 |③-④-|
口口③口 |⑤---|
⑥⑥⑥⑤ |⑥---|
55
口口口口 |①---|
①口⑤② |②-③-|
①口⑥③ |④-⑤-|
口口⑦④ |⑥-⑦-|
56
①①④口 |①--②|
⑤⑦⑦口 |③-④-|
②⑦⑦口 |⑤-⑥-|
口③口⑥ |⑦---|
57
①②口口 |①---|
⑤口口② |②③④⑤|
②口口④
口③②口

⑪口⑥⑧
口⑦⑫口
口⑬口口 |⑥⑦⑧⑨|
⑨口口⑩ |⑩⑪⑫⑬|
58
⑩②④⑥ |①-②③|
⑪口⑭⑦ |-④⑤-|
⑫⑭①⑧ |⑥⑦⑧⑨⑩⑪⑫⑬|
⑬⑤③⑨ |⑭---|
59
口①口口 |①---|
③口口口 |--②-|
口口口口 |----|
口口②口 |③---|
60
①口口口 |--①-|
口口口口 |----|
口口口口 |----|
口口口口 |----|
61
口口③口 |①---|
口口口① |--②-|
口口口口 |----|
口②口口 |③---|
62
口口口口 |①---|
②口口③ |--②-|
口④①口 |--③-|
口口口⑤ |④-⑤-|
63
⑦③口② |①-②-|
口口口⑥ |③-④-|
⑤口口口 |⑤-⑥-|
①口④⑧ |⑦-⑧-|
64
口⑦口⑥ |①-②-|
③口②口 |③-④-|
口①口④ |⑤-⑥-|
⑤口⑧口 |⑦-⑧-|
65
③⑮⑥⑭ |①②③④|
⑪⑦②⑩ |⑤⑥⑦⑧|
⑤⑬⑫⑧ |⑨⑩⑪⑫|
⑨①⑯④ |⑬⑭⑮⑯|
66
口口②口 |①---|
③口口口 |--②-|
口③口口 |----|
③①③口 |③---|
67
②⑦②口 |①---|
口口⑦③ |②-③④|
⑤口④⑧ |⑤-⑥-|
口①⑥① |⑦⑧--|
68
⑤口②③ |①-②③|
口①口③ |④-⑤-|
⑤口口口
①④口口

口⑧口口
⑬⑫⑦口
口⑨⑪⑩ |⑥⑦⑧⑨|
口口⑥口 |⑩⑪⑫⑬|
69
口口①③ |①---|
口口④口 |②-③④|
口口口口
②②口①

⑤⑥口口
口⑦口口
⑥口⑦口 |⑤-⑥-|
口口⑨⑧ |⑦⑧⑨-|
70
⑪⑥②③ |①-②③|
①⑩⑦② |--④-|
⑤①⑨口 |⑤⑥⑦-|
④④口⑧ |⑧⑨⑩⑪|
71
⑩⑩①① |①-②-|
③口⑤⑧ |③-④⑤|
⑦②⑨④ |⑥-⑦-|
⑥口⑤⑧ |⑧⑨⑩-|
72
⑧⑧①① |①-②③|
②③④⑦ |--④-|
⑤③⑨⑦ |⑤⑥⑦-|
口⑥④⑨ |⑧-⑨-|
73
⑨⑨③② |①-②③|
④①③⑥ |④-⑤-|
⑤口⑧⑦ |⑥-⑦⑧|
①⑤⑦⑩ |⑨-⑩-|
74
口口⑦② |①-②-|
③①⑧④ |③-④-|
⑤口⑨⑥ |⑤-⑥-|
①口⑩口 |⑦⑧⑨⑩|
75
口口口① |①-②-|
口①口|
口②口|
①口口∧

③⑥口口
口口口④ |③-④-|
⑤口⑦口 |⑤-⑥-|
⑧口口口 |⑦-⑧-|
76
⑦口⑧⑧ |①-②③|
②①③∨ |④-⑤-|
⑤⑥口| |⑥-⑦-|
口④口⑨ |⑧-⑨-|
77
口①口口 |①-②-|
④⑧③⑦ |③-④-|
口⑥口口 |⑤-⑥-|
②口⑤口 |⑦-⑧-|
78
④口口口 |①-②③|
口口③口 |④-⑤-|
②口①口
口⑤口④

口⑧⑦口
∨口口口
|口口⑥ |⑥-⑦-|
⑨口口口 |⑧-⑨-|
79
③口③口 |----|
口>―① |①-②-|
④④口口 |③---|
①>―② |④---|
80
⑦口口⑦ |--①-|
口①⑧② |②-③-|
口⑤⑥口 |④-⑤⑥|
④②③② |⑦-⑧-|
81
⑨①④⑫ |①-②-|
⑤口口⑧ |③-④-|
口⑪⑩② |⑤⑥⑦⑧|
⑦③口⑥ |⑨⑩⑪⑫|
82
⑥①④口 |①-②-|
⑥①口④ |--③-|
②口⑦② |④-⑤-|
⑤⑤⑦③ |⑥-⑦-|
83
⑧②⑦⑥ |①---|
⑨①①⑤ |②-③④|
⑩②口④ |⑤⑥⑦-|
⑪口口③ |⑧⑨⑩⑪|
84
口⑦⑧⑨ |①②③④|
⑩②①⑩ |⑤--⑥|
⑩④③⑩ |⑦⑧⑨-|
口口⑤⑥ |⑩---|
85
②③④口 |①---|
口口①口 |②-③-|
口①⑥口 |④--⑤|
口口⑤⑤ |--⑥-|
86
⑤口口口 |①-②-|
①②⑥④ |③-④-|
口⑥口③ |⑤---|
口口口⑤ |⑥---|
87
口①①① |①---|
②⑥⑦③ |②③④⑤|
④⑦⑦⑤ |⑥---|
①①①⑦ |⑦---|
88
⑥①⑤⑤ |--①-|
①②⑥① |--②③|
④⑥口③ |④-⑤-|
④口①⑥ |⑥---|
89
⑪⑦⑥⑧ |①-②-|
③口口④ |③-④-|
⑤⑨⑩口 |⑤-⑥⑦|
口①②口 |⑧⑨⑩⑪|
90
口口口口 |①--②|
②①①② |--③-|
③口口③
①②②①

>④④<
口口口口
口口口口 |----|
口口口口 |④---⑤⑥⑦⑧|

口⑤⑤口
口⑥⑥口
口⑦⑦口
口⑧⑧口

不確定度: 1

最終更新:2018年02月09日 03:55