アットウィキロゴ

JUMPin' JUMP UP!!!!
fourfolium

ADVANCED

Level: 6
BPM: 168
Notes: 380

1
口口口口 |------|
口口口口 |------|
口口口口 |------|
口口口口 |------|
2
口口口口 |------|
口②口口 |------|
口口①口 |①-----|
口口口口 |②-----|
3
④④②② |①-----|
口口口口 |②-----|
口口口口 |③-----|
①①③③ |④-----|
4
口口口口 |①-----|
口口口口 |②-----|
口②②口
①①口口

口口③③
口口⑤口
口口口口 |③-----|
口④口口 |④---⑤-|
5
⑤口口⑤ |①-----|
口①口口 |②---③-|
口③④口 |④-----|
口口②口 |⑤-----|
6
口口口口 |①-----|
口口口口 |------|
口②口口 |------|
①口口① |②-----|
7
④④②② |①-----|
口口口口 |②-----|
口口口口 |③-----|
③口口① |④-----|
8
口口口口 |①-----|
口④④口 |②-----|
口口②口 |③-----|
口③③① |④-----|
9
②②④④ |①-----|
口口口口 |②-----|
口口口口 |③-----|
①口口③ |④-----|
10
口口口口 |①-----|
②口口② |------|
②①①② |------|
口口口口 |②-----|
11
④④②② |①-----|
口口口口 |②-----|
口口口口 |③-----|
③口口① |④-----|
12
口口口口 |①-----|
口④④口 |②-----|
口口②口 |③-----|
口③③① |④-----|
13
②②④④ |①-----|
口口口口 |②-----|
口口口口 |③-----|
①口口③ |④-----|
14
①①④④ |①---②-|
⑤⑤②② |--③---|
③③⑥⑥ |④---⑤-|
口口口口 |--⑥---|
15
③口口口 |①-----|
口口口口 |------|
口口口口 |②-----|
①①口② |③-----|
16
口口①① |①-----|
口口口口 |------|
口口口口 |②-----|
②②口口 |------|
17
③③③③ |①-----|
口②②口 |②-----|
口①①口 |③-----|
口口口口 |------|
18
口口口口 |①-----|
口④②口 |②-----|
口口口口 |③-----|
③③①① |④-----|
19
③口口③ |①-----|
②④口② |②-----|
①口口① |③-----|
口口口口 |----④-|
20
口②口口 |①-----|
口口①口 |②-----|
口④口口 |③-----|
口③口口 |----④-|
21
口口②口 |①-----|
口口口口 |②-----|
口口①口 |③-----|
口口③口 |------|
22
①口口② |①-②-③-|
③⑦⑧④ |④-⑤-⑥-|
⑤⑨⑩⑥ |⑦-⑧-⑨-|
口⑪⑫口 |⑩-⑪-⑫-|
23
口②③口 |①---②-|
口④⑤口 |③---④-|
口口口口 |⑤-----|
①口口口 |------|
24
口②③口 |①---②-|
口⑥⑤口 |③-----|
口口口口 |④---⑤-|
④口口① |⑥-----|
25
口口口② |①---②-|
③口口④ |③-④-⑤-|
⑤口口⑥ |⑥-----|
口口①口 |------|
26
③③②② |①-----|
口口口口 |②-----|
口口口口 |③-----|
①①④④ |④-----|
27
④口口④ |①---②-|
口②③口 |③-----|
①⑤口① |④-----|
口口口口 |----⑤-|
28
③③口口 |①-----|
口④口口 |②-----|
口口①口 |③-----|
②②口口 |----④-|
29
口口③③ |①-----|
口口①口 |②-----|
口口口口 |③-----|
口口②② |------|
30
⑦口⑪⑧ |①-②-③-|
口①④口 |④-⑤-⑥-|
⑨⑤②⑩ |⑦-⑧-⑨-|
口③⑥口 |⑩---⑪-|
31
口③口口 |①---②-|
口②④口 |--③-④-|
口⑤口口 |⑤-----|
口①口口 |------|
32
口口①① |①---②-|
口②③口 |③---④-|
口④⑤口 |⑤---⑥-|
口⑥⑦口 |⑦-----|
33
①①口口 |①-----|
②②口口 |②-----|
③③口口 |③-----|
口口口口 |------|
34
口口口① |①-----|
口口口口 |------|
口③口口 |②-----|
②口口口 |③-----|
35
口②口口 |①-----|
口口①口 |------|
口口口口 |②-----|
口口口口 |------|
36
口口口① |①-----|
②口口口 |②-----|
口口口③ |③-----|
④口口口 |④-----|
37
口口口② |①-----|
口口口口 |------|
口③①口 |------|
口口口口 |②---③-|
38
口口②口 |①---②-|
口口口口 |----③-|
口口①口
口口③口

口口⑤⑤
口④④口
口口口口 |----④-|
口口口口 |----⑤-|
39
口口口口 |----①-|
口口口口 |②---③-|
口②①口
口③口口

⑤口④口
口口口口
口口⑥口 |----④-|
口口口口 |⑤---⑥-|
40
口②口口 |①---②-|
口口口口 |----③-|
口①口口
口③口口

口口口口
口④④口
口⑤口口 |----④-|
口口口口 |----⑤-|
41
③口口④ |①-----|
口口口口 |②---③-|
口口①口 |----④-|
口②口口 |------|
42
口口口③ |①-----|
口①①口 |②---③-|
口②②口
口口口口

④口口口
口⑤口口
口口口口 |----④-|
口口口口 |----⑤-|
43
口口口口 |①-----|
口口①口 |------|
口口口口 |②-----|
②口口② |------|
44
①口口① |①-----|
口口口口 |------|
口口口口
口口口口

②口口②
口口口口
口口口口 |------|
口口口口 |②-----|
45
⑥⑥⑥⑥ |①---②-|
④②③⑤ |③---④-|
④口口⑤ |----⑤-|
①口口① |----⑥-|
46
口口口口 |------|
口②口口 |------|
口口①口 |①-----|
口口口口 |②-----|
47
④④②② |①-----|
口口口口 |②-----|
口口口口 |③-----|
①①③③ |④-----|
48
口口口口 |①-----|
口口口口 |②-----|
口②②口
①①口口

口口③③
口口⑤口
口口口口 |③-----|
口④口口 |④---⑤-|
49
⑤口口口 |①-----|
⑤①口口 |②---③-|
口③④口 |④-----|
口口②口 |----⑤-|
50
口③③① |①-----|
④口口① |②-----|
口口⑤口 |③-----|
口②②口 |④---⑤-|
51
④④②② |①-----|
口口口口 |②-----|
口①口口 |③-----|
口口③③ |④-----|
52
④口③③ |①-----|
口口⑤口 |②-----|
口②②口 |③-----|
①①口口 |④---⑤-|
53
口口口口 |①-----|
⑤①口口 |②---③-|
⑤③④口 |④-----|
口口口② |⑤-----|
54
口口口口 |①-----|
口③口① |------|
口口②① |②-----|
口口口口 |③-----|
55
④④②② |①-----|
口口口口 |②-----|
口口口口 |③-----|
①①③③ |④-----|
56
口口口口 |①-----|
口口口口 |②-----|
口②②口
①①口口

口口③③
口口⑤口
口口口口 |③-----|
口④口口 |④---⑤-|
57
口口口口 |①-----|
口①口口 |②---③-|
口③口口
口口②口

口⑤口口
口⑤口口
口口④口 |④-----|
口口口口 |----⑤-|
58
③口①③ |①-----|
④口①口 |②-----|
口口⑤口 |③-----|
②口口② |④---⑤-|
59
④④②② |①-----|
口口口口 |②-----|
口①口口 |③-----|
口③口口 |④-----|
60
口⑤①① |①-----|
口②②口 |②-----|
③③口口 |③-----|
口口口④ |④---⑤-|
61
口口①口 |①-----|
口④③口 |②---③-|
口口口口 |④-----|
②⑤⑤口 |⑤-----|
62
①口②① |①-----|
口③口口 |②-----|
④口口口 |③-----|
口口口口 |④-----|
63
口口口口 |①-----|
口②②口 |------|
口②②口 |②-----|
口口①口 |------|

不確定度: 0

最終更新:2018年07月16日 22:57