アットウィキロゴ

灼熱Beach Side Bunny
DJ Mass MAD Izm*

EXTREME

Level: 10.7
BPM: 153
Notes: 1606 (667)

短HOLD (=1/300s) 非表示
1
口口口口 |----|
口口口口 |----|
口口口口 |----|
口口口口 |----|
2
①③口② |①-②-|
口口口口 |③④⑤-|
口口口口
口⑤口④

⑧口口口
⑧⑥⑥口
口⑦⑦口 |⑥--⑦|
口口口口 |--⑧-|
3
口②口① |①---|
口⑤口① |②-③-|
④口口③ |④--⑤|
④⑥口③ |--⑥-|
4
①③口② |①-②-|
口口口口 |③④⑤-|
口口口口
⑤口口④

⑧口口口
⑧⑥⑥口
口⑦⑦口 |⑥--⑦|
口口口口 |--⑧-|
5
口②②① |①---|
口口口① |②-③-|
②③④② |④---|
口③④口 |----|
6
③①口② |①-②-|
①⑤⑤口 |③④--|
③⑥⑥口 |⑤--⑥|
⑦⑦口④ |--⑦-|
7
口口①② |①---|
口口口① |②---|
口口口②
口口口口

口口口口
口③③⑤
口④④口 |③--④|
口口⑤口 |--⑤-|
8
③①口② |①-②-|
①⑤⑤口 |③④--|
③⑥⑥口 |⑤--⑥|
⑦⑦口④ |--⑦-|
9
③口①② |①---|
口口口① |②-③-|
口口口②
口口口口

口口口口
⑥口口⑤
口④④口 |④--⑤|
⑥口口⑤ |--⑥-|
10
③①口② |①-②-|
口③口口 |③-④-|
①④④口
口口口口

口⑥口口
⑦口⑤口
口口口口 |⑤--⑥|
⑦⑤口⑥ |--⑦-|
11
口③①② |①---|
④口口① |②---|
③口⑥② |③--④|
④口口⑤ |--⑤⑥|
12
①⑤⑤① |①-②-③-|
⑥②②⑥ |④---|
③⑦⑦③ |⑤-⑥-⑦-|
⑧④④⑧ |⑧---|
13
①④④① |①-②-③-|
⑤②②⑤ |④-⑤-⑥-|
③⑥⑥③
口口口口

⑨口口⑨
>⑩⑩口
口口口口 |⑦-⑧-⑨-|
⑧⑦⑦⑧ |⑩---|
14
口①③口 |①---|
①口①① |②-③-|
②口口口
口②②口

④口口⑤
口⑥口⑦
口④⑥④ |④-⑤⑥|
⑥口口⑦ |--⑦-|
15
口③②口 |①---|
①口①口 |②-③-|
口口口口
口②①口

⑤口口⑤
⑥口口口
④口口④ |④--⑤|
⑥口口口 |--⑥-|
16
口③③口 |①-②-|
口①口① |③-④-|
③口口口
口①④②

⑤口口⑥
口⑦口⑧
口⑤⑦⑤ |⑤-⑥⑦|
⑦口口⑧ |--⑧-|
17
③②③口 |①-②-|
①口口口 |③-④-|
①口口口
④④口口

口口口口
⑥口口⑦
⑧口口⑨ |⑤--⑥|
口口⑤口 |⑦⑧⑨-|
18
⑧④①⑨ |①-②③|
⑪①⑤⑫ |④-⑤-⑥-⑦--⑧--|
⑬⑥口⑭ |⑨⑩-⑪|
②⑩⑦③ |⑫⑬⑭-|
19
③②①⑨ |①-②-|
⑤③⑥口 |③-④-|
口⑦②⑦ |⑤-⑥⑦|
①⑤⑧④ |⑧-⑨-|
20
口②①口 |①-②-|
口③口④ |③-④⑤|
③口⑤口
①口口口

⑦⑪⑫口
口口⑥口
口口口口 |⑥⑦-⑧|
口⑨⑩⑧ |⑨⑩⑪⑫|
21
口口口② |①-②-|
①口口口 |③-④-|
口口口④
③口口口

⑤口口⑨
口口⑥口
口⑦⑩口 |⑤-⑥⑦|
口口⑧口 |⑧-⑨⑩|
22
口口②口 |①-②-|
②口口口 |③④--|
③口口口
①④口④

口⑤口⑦
⑦口⑤口
口⑥口口 |⑤--⑥|
口口⑥口 |--⑦-|
23
⑤口④口 |①②③-|
口①口口 |④⑤--|
口口②口
口③口口

口口口口
⑧⑦口⑥
口⑨口口 |⑥--⑦|
⑥口口⑦ |--⑧⑨|
24
口⑤②口 |①-②-|
口口口口 |③④⑤-|
口口口④
口③①口

口口⑧⑧
口口⑥口
⑥口口口 |⑥--⑦|
⑦口口⑦ |--⑧-|
25
④⑫口⑪ |①②③-|
⑧①口⑦ |④⑤⑥⑦|
⑩⑤②⑨ |⑧⑨⑩⑪|
⑬③⑥口 |⑫-⑬-|
26
③⑦②⑦ |①-②-|
⑥口⑤口 |③④--|
口⑤口口 |⑤--⑥|
口①⑥④ |--⑦-|
27
⑤口④口 |①②③-|
口①⑧⑥ |④⑤--|
⑨口②⑩ |⑥-⑦⑧|
⑥③口⑦ |⑨-⑩-|
28
口①②⑪ |①-②-|
口⑦⑥口 |③④⑤⑥|
口⑨⑧⑩ |⑦⑧⑨⑩|
③⑤④口 |--⑪-|
29
②⑥⑦口 |①-②-|
口口⑩⑤ |③④⑤⑥|
口口④口 |⑦⑧⑨⑩|
①⑧⑨③

>――⑪
口口口口
口口口口
口口口口 |⑪-⑫-|

口口口⑫
口口口口
口口口口
口口口口
30
⑤⑥口口 |①②③④|
①②口口 |⑤⑥⑦⑧|
③④口口
⑦⑧口口

>――⑫
口口⑨口
口口口⑩ |⑨⑩⑪-|
口口⑪口 |⑫-⑬-|

口口口⑬
口口口口
口口口口
口口口口
31
口①口口 |①-②-|
口口④③ |③④⑤⑥|
口口⑥⑤
②口口口

口口⑧口
口口口口
⑨――< |⑦-⑧-|
口口口⑦ |⑨-⑩-|

口口口口
口口口口
⑩口口口
口口口口
32
①②口⑨ |①②③④|
③④口口 |⑤⑥⑦-|
口口⑤⑥ |⑧-⑨-|
⑧口⑦口

口口口口
口口口口
口口口口
>――⑩ |⑩-⑪-|

口口口口
口口口口
口口口口
口口口⑪
33
⑤①⑦口 |①-②-③-④--⑤--|
⑨口②口 |⑥-⑦-|
口③口⑥ |⑧-⑨-|
⑧口④口

口口口口
口口口口
口口口口
>――⑩ |⑩-⑪-|

口口口口
口口口口
口口口口
口口口⑪
34
⑥②口① |①--②③④|
口口③口 |⑤⑥⑦-|
口④口⑦
口口⑤口

口口⑧口
⑩――<
口口口口 |⑧-⑨-|
⑨口口口 |⑩-⑪-|

口口口口
⑪口口口
口口口口
口口口口
35
⑦⑩口① |①-②-③-④--⑤--|
⑪口②⑤ |⑥-⑦⑧|
⑥⑫口③ |⑨--⑩-⑪-⑫-⑬--|
⑬⑨④⑧

>――⑭
口口口口
口口口口
口口口口 |⑭-⑮-|

口口口⑮
口口口口
口口口口
口口口口
36
③⑨④口 |①②③④|
口①②口 |⑤⑥⑦-|
口⑦口口 |⑧-⑨-|
口⑤⑧⑥

口口口口
口口口口
口口口口
⑩――< |⑩-⑪-|

口口口口
口口口口
口口口口
⑪口口口
37
口口②① |①②③④|
口口④③ |⑤⑥⑦⑧|
口口⑧⑦
口口⑥⑤

口口口口
⑩⑨口口
口⑪口口 |⑨⑩⑪-|
⑫――< |⑫-⑬-|

口口口口
口口口口
口口口口
⑬口口口
38
①口①④ |①-②-|
口口⑤口 |③-④⑤|
口口②口
口③口③

口口⑨口
⑥口口⑧
⑧口⑩⑩ |⑥⑦-⑧|
口口⑦口 |⑨-⑩-|
39
④①⑧口 |①-②-|
⑨⑤⑫口 |③-④⑤|
⑦②口⑩ |⑥⑦⑧⑨|
③⑪⑥① |⑩⑪⑫-|
40
⑥⑨⑫① |①--②③④|
口口口⑦ |⑤⑥⑦⑧|
⑧②③⑩ |-⑨-⑩|
④口⑪⑤ |⑪-⑫-|
41
①⑧口口 |①-②-|
⑤④口④ |③-④-|
⑥②③口 |⑤--⑥|
③⑦⑤① |⑦-⑧-|
42
②口①① |①--②--③-④-⑤-|
⑧④③口 |⑥⑦⑧-|
⑧⑥⑤③
⑥口口⑦

⑭⑫⑬口
口口口⑨
口口口口 |⑨⑩⑪⑫|
口⑩⑪口 |⑬-⑭-|
43
口口口④ |①-②-|
③③口口 |③-④⑤|
口口②口
①口⑤①

口⑥⑨口
口口⑦⑧
口⑨⑪⑥ |⑥⑦⑧⑨|
口口口⑩ |⑩-⑪-|
44
⑤口口③ |①-②③|
口②口⑤ |④-⑤-|
③口口④
①口口口

口⑦口⑪
口口⑧口
口⑨口口 |⑥⑦⑧⑨|
口口⑩⑥ |⑩-⑪-|
45
口④②口 |①-②-|
⑤⑨⑩⑥ |③-④-|
⑦⑪⑫⑧ |⑤⑥⑦⑧|
①口口③ |⑨⑩⑪⑫|
46
②⑥⑦③ |①-②③|
⑧口口口 |④⑤⑥⑦|
口口口口 |⑧-⑨-|
①④⑤⑨

口口口⑪
>――⑩
口口口口
口口口口 |⑩--⑪|
47
①口⑨口 |①②③④|
⑤②口⑧ |⑤-⑥⑦|
③口⑦⑩ |⑧⑨⑩-|
口④口⑥

>――⑪
口口口口
口口口口
口口口口 |⑪---|
48
口⑩⑥⑧ |①②③④|
①②口口 |⑤-⑥-|
③④口口 |⑦-⑧-|
⑤口⑨⑦ |⑨-⑩-|
49
口口②口 |①-②③|
⑥口口③ |④⑤⑥-|
口口④①
口口口⑤

⑨口口⑦
口⑪⑩口
口口⑫口 |⑦-⑧-|
⑧口口口 |⑨--⑩⑪⑫|
50
⑦口②⑧ |①②③④|
③口口口 |⑤-⑥⑦|
⑨①口④ |⑧⑨⑩-|
口⑤⑩⑥

口口口口
口口口口
口⑫口口
⑪――< |⑪-⑫-|
51
⑤口⑨⑦ |①-②-③-④--⑤--|
口⑥①② |⑥-⑦-|
口口③④ |⑧-⑨-|
口口口⑧

⑪――<
口口口口
口口口口
⑩口口口 |⑩-⑪-|
52
口⑥口口 |①-②③|
口③口⑤ |④⑤⑥-|
②口④①
口口口口

口口口⑦
口⑩口口
口口口口 |⑦-⑧-|
⑨口口⑧ |⑨--⑩|
53
②口口⑥ |①-②③|
③口⑤⑦ |④-⑤-|
④口①⑧ |⑥⑦⑧-|
⑨――< |⑨---|
54
口口②口 |①-②-|
②口口口 |③④--|
③口口口
①④①④

口⑤口⑦
⑦口⑤口
口⑥口口 |⑤--⑥|
口口⑥口 |--⑦-|
55
⑤口④口 |①②③-|
口①口口 |④⑤--|
口口②口
口③口口

口口口口
⑧⑦口⑥
口⑨口口 |⑥--⑦|
⑥口口⑦ |--⑧⑨|
56
口⑤②口 |①-②-|
口口口口 |③④⑤-|
口口口④
口③①口

口口⑧⑧
口口⑥口
⑥口口口 |⑥--⑦|
⑦口口⑦ |--⑧-|
57
④⑫口⑪ |①②③-|
⑧①口⑦ |④⑤⑥⑦|
⑩⑤②⑨ |⑧⑨⑩⑪|
⑬③⑥口 |⑫-⑬-|
58
③⑥②口 |①-②-|
⑧④⑤口 |③④--|
⑧⑦②口 |⑤⑥-⑦|
口①⑦④ |--⑧-|
59
④口③① |①-②-|
口口口口 |③④--|
口口①②
口口口口

口口口口
口⑥口⑤
口口⑧口 |⑤--⑥|
⑤口⑦⑥ |-⑦⑧-|
60
①⑤②口 |①-②-|
口口口口 |③④⑤-|
口口口④
口③口口

⑧口口⑨
口口⑥口
⑥口口口 |⑥--⑦|
⑦⑩口⑦ |-⑧⑨⑩|
61
口②③口 |①②③-|
⑤口口口 |④⑤⑥-|
口口④口
口口①⑥

口⑨口口
口⑧口⑨
口口口⑦ |⑦--⑧|
⑦口口口 |⑨---|
62
①口①④ |①-②-|
口口⑤口 |③-④⑤|
口口②口
口③口③

口口⑨口
⑥口口⑧
⑧口⑩⑩ |⑥⑦-⑧|
口口⑦口 |⑨-⑩-|
63
④①⑧口 |①-②-|
⑨⑤⑫口 |③-④⑤|
⑦②口⑩ |⑥⑦⑧⑨|
③⑪⑥① |⑩⑪⑫-|
64
②⑩⑬① |①-②③|
⑨口口③ |④-⑤-⑥-⑦--⑧--|
⑧⑥⑦⑪ |⑨⑩-⑪|
④口⑫⑤ |⑫-⑬-|
65
①口口⑤ |①-②③|
口口口② |④-⑤-|
口口③口
口④口①

⑩⑪口口
⑥⑦口口
⑧⑨口口 |⑥⑦⑧⑨|
⑫口口口 |⑩⑪⑫-|
66
⑧口口③ |①②-③|
⑫⑪④① |④-⑤⑥|
⑩⑬②⑤ |⑦⑧⑨⑩|
⑭⑨⑥⑦ |⑪⑫⑬⑭|
67
⑤⑥④① |①②③④--|
口⑬②③ |⑤⑥⑦⑧|
⑪口⑨⑩ |⑨⑩-⑪|
口⑫⑧⑦ |⑫-⑬-|
68
⑦⑪④⑤ |①-②③|
⑨口⑥② |④-⑤⑥|
口⑩③口 |⑦⑧-⑨|
①口口⑧ |⑩-⑪-|
69
④⑨⑤⑤ |①②③④|
⑬⑤⑩⑥ |⑤-⑥⑦|
①⑪⑦⑭ |⑧⑨⑩⑪|
③②⑫⑧ |⑫⑬⑭-|
70
②口①③ |①-②-|
口口④口 |③-④⑤|
④口②口
①⑤口③

口⑦⑩口
口口口口
口⑥口⑧ |⑥⑦-⑧|
口口⑨口 |⑨-⑩-|
71
④口口③ |①-②-|
①⑤口口 |③-④⑤|
③口口口
①口口②

口口⑫口
口口⑩⑦
口⑥⑧⑨ |⑥⑦⑧⑨|
口口口⑪ |⑩⑪⑫-|
72
⑦②口⑪ |①--②--③-④-⑤-|
③④⑬口 |⑥⑦⑧⑨|
⑤⑥⑩⑫ |⑩⑪-⑫|
①⑨⑧⑭ |⑬-⑭-|
73
①②口⑥ |①②③④|
③④口口 |⑤-⑥-|
⑤口口口
口口口口

⑬口口口
口口⑦⑧
口口⑨⑩ |⑦⑧⑨⑩⑪⑫|
口⑭⑪⑫ |⑬-⑭-|
74
口口①② |①--②--③-④-⑤-|
③④⑤⑥ |⑥⑦⑧⑨--|
⑦⑧⑨口
口口口口

⑩⑭⑬口
口口口口
口口口口 |⑩⑪⑫⑬|
口⑫⑮⑪ |⑭-⑮-|
75
口口口⑧ |①②③④⑤⑥|
④③②① |⑦-⑧⑨|
口⑦⑥⑤
⑨口口口

⑪⑮⑫口
口口口⑯
⑰口口口 |⑩⑪⑫⑬|
口⑬⑭⑩ |⑭⑮⑯⑰|
76
口口口⑤ |①-②③|
②口⑥口 |④-⑤⑥|
口③口①
④口口口

⑨口口口
口⑩口口
口⑪口口 |⑦⑧-⑨|
口口⑦⑧ |⑩-⑪-|
77
⑪①②⑫ |①-②-|
⑤⑥⑦口 |③-④-|
⑩⑨⑧口 |⑤⑥⑦⑧⑨⑩⑪⑫|
口④③口

口口口口
>――⑬
口口口口
口口口口 |⑬-⑭-|

口口口口
口口口⑭
口口口口
口口口口
78
口口口口 |----|
口口口口 |----|
口口口口 |----|
口口口口 |----|
79
口口口口 |----|
口口口口 |----|
口口口口 |----|
口口口口 |----|

不確定度: 0

最終更新:2022年02月23日 11:12