アットウィキロゴ

1116
Dustup

EXTREME

Level: 10.9
BPM: 190
Notes: 1116 (62)

1
口口口口 |----|
口口口口 |----|
口口口口 |----|
口口口口 |----|
2
①口②② |①---|
①口④口 |②---|
①口口④ |③---|
①口③③ |④---|
3
口①口② |①---|
③①口② |②---|
③①口④ |③---|
口①口④ |④---|
4
②②①口 |①---|
口④①口 |②---|
④口①口 |③---|
③③①口 |④---|
5
口②②① |①---|
口④①③ |②---|
口口①① |③---|
口④①① |④---|
6
①口④② |①---|
①口②口 |②---|
①口④④ |③---|
①口③③ |④---|
7
口①口② |①---|
③①口② |②---|
④①口④ |③---|
③①口④ |④---|
8
②口①口 |①---|
④②①口 |②---|
④④①口 |③---|
③③①口 |④---|
9
口③②① |①---|
口②①③ |②---|
口④①① |③---|
口④①① |④---|
10
①口口② |①--②|
①口④口 |--③④|
①口口口
①口口③

口口⑥口
⑨口口⑦
口口口⑤ |-⑤⑥-|
口口⑧口 |⑦-⑧⑨|
11
口①口② |①--②|
口①口口 |--③④|
口①口④
③①口口

⑦⑧口口
口⑨口⑥
⑤⑩口口 |-⑤⑥-|
口⑪口口 |⑦---⑧⑨⑩⑪|
12
口口①口 |①--②|
②口①口 |--③④|
④口①口
③口①口

⑥口⑧口
口⑦口⑤
口⑨口口 |-⑤⑥-|
口口口口 |⑦-⑧⑨|
13
口口口① |①--②|
②口①口 |--③④|
口口①①
④③①①

⑦⑤⑧口
口口⑨口
⑥口⑩口 |-⑤⑥-|
口口⑪口 |⑦---⑧⑨⑩⑪|
14
⑦⑥口④ |①-②-|
③①口② |③-④-|
⑦③口⑤ |⑤-⑥-|
口⑤⑧① |⑦-⑧-|
15
⑧口①⑥ |①-②-|
⑤①③③ |③-④-|
口⑦⑦口 |⑤-⑥-|
④⑤口② |⑦-⑧-|
16
口②③口 |①②③④|
口⑥口⑦ |⑤⑥⑦⑧|
④口口①
⑧口⑤口

⑮口口⑭
⑪口⑨口
口口⑫⑯ |⑨⑩⑪⑫|
口⑬口⑩ |⑬⑭⑮⑯|
17
④①①④ |①---|
口口口② |②---|
②口口口 |③---|
③口口③ |④---|
18
口>①口 |①---|
口①<口 |----|
>①①< |----|
>①①< |----|
19
口口①口 |①---|
口①口口 |----|
口①①口 |----|
口①①口 |----|
20
①①①① |①---|
口口口口 |----|
口口口口 |②---|
②②②② |----|
21
口口口口 |①---|
①①①① |----|
①①①① |----|
口口口口 |----|
22
⑩口①⑨ |①--②|
④①⑥⑤ |③-④-|
①⑨⑧⑦ |⑤⑥⑦⑧|
②②口③ |⑨-⑩-|
23
口①①口 |①--②|
口口口④ |③-④-|
口口口口
③口②②

⑨口⑩口
⑤⑥口口
⑦⑧⑨口 |⑤⑥⑦⑧|
口口口口 |⑨-⑩-|
24
口③口① |①--②|
④口口口 |③-④-|
口口口口
②①②口

口口⑨口
口口⑤⑥
口⑨⑦⑧ |⑤⑥⑦⑧|
口⑩口口 |⑨-⑩-|
25
①⑨口② |①--②|
⑥⑤④口 |③-④-|
⑧⑦⑨口 |⑤⑥⑦⑧|
③口⑩① |⑨-⑩-|
26
①口①口 |①--②|
口④口口 |③-④-|
口口口口
②②口③

⑩口口⑨
口口⑥⑤
口⑨⑧⑦ |⑤⑥⑦⑧|
口口口口 |⑨-⑩-|
27
⑨①③口 |①--②|
⑤⑥口④ |③-④-|
⑦⑧⑨口 |⑤⑥⑦⑧|
②②①⑩ |⑨-⑩-|
28
口①⑨① |①--②|
④⑨⑤⑥ |③-④-|
⑩口⑦⑧ |⑤⑥⑦⑧|
②②③口 |⑨-⑩-|
29
①②口① |①--②|
④口口口 |③-④-|
口口口口
口③口②

⑫口口⑪
口⑧⑦口
⑩⑥⑤⑨ |⑤⑥⑦⑧|
⑨口口口 |⑨⑩⑪⑫|
30
口②③口 |①-②-|
③口口① |③---|
口口口口
口③①口

口口口口
口口④口
口⑥⑥口 |④-⑤-|
⑤口⑦④ |⑥-⑦-|
31
③⑤④① |①-②-|
⑤③⑦① |③-④-|
②⑧⑥① |⑤-⑥-|
口⑤⑦口 |⑦-⑧-|
32
⑦④⑤② |①-②-|
口③口① |③---|
④⑥⑥① |④-⑤-|
③口口③ |⑥-⑦-|
33
口口⑩① |①②③④|
⑨⑫口② |⑤⑥⑦⑧|
⑧口⑪③ |⑨-⑩-|
⑦⑥⑤④ |⑪-⑫-|
34
②④⑥① |①-②-|
⑦口①④ |③---|
⑤③⑥口 |④-⑤-|
③口③④ |⑥-⑦-|
35
③口口① |①-②-|
口③①口 |③-④-|
口口口①
口②口④

口⑤口⑧
口口口⑥
口⑤⑦口 |⑤-⑥-|
口口⑦口 |⑦-⑧-|
36
口⑤④⑦ |①-②-|
①③②口 |③---|
①⑥⑥④ |④-⑤-|
口③口③ |⑥-⑦-|
37
①⑩口口 |①②③④|
②口⑫⑨ |⑤⑥⑦⑧|
③⑪口⑧ |⑨-⑩-|
④⑤⑥⑦ |⑪-⑫-|
38
①口口④ |①-②-|
⑦①⑧口 |③-④-|
③⑥③⑤ |⑤-⑥-|
口②口⑤ |⑦-⑧-|
39
口①②口 |①-②-|
口③口口 |③-④-|
④口②口
口①口口

口⑧口⑤
口口⑦口
口⑥口⑥ |⑤-⑥-|
口口口⑤ |⑦-⑧-|
40
口口②口 |①-②-|
①⑤口③ |③-④-|
口⑧⑥口 |⑤-⑥-|
①④③⑦ |⑦-⑧-|
41
④③②① |①②③④|
⑤口口口 |⑤⑥⑦⑧|
⑥口口口
⑦⑧口口

口口口⑫
口⑩⑨口
口⑪口⑨ |⑨-⑩-|
口口⑪口 |⑪-⑫-|
42
口⑨①⑩ |①-②-|
②⑥⑦③ |③-④-|
⑤⑨①⑧ |⑤⑥⑦⑧|
口④口③ |⑨-⑩-|
43
口口①口 |①-②-|
②口口② |③-④-|
口口③口
口④①口

⑤口⑧口
口⑦⑥口
⑥口口口 |⑤-⑥-|
⑤口口口 |⑦-⑧-|
44
口口口③ |①-②-|
①口口口 |③-④-|
口①口③
④口口②

口口口口
口⑧⑦口
⑨⑩⑨口 |⑤⑥⑦⑧|
口⑥⑤口 |⑨-⑩-|
45
①②③④ |①②③④|
口口口⑤ |⑤⑥⑦⑧|
口口口⑥
口口⑧⑦

⑫口口口
⑨⑪⑨口
口口口口 |⑨-⑩-|
口⑩口口 |⑪-⑫-|
46
口①④③ |①-②-|
⑥⑥口③ |③---|
②②⑤⑤ |④-⑤-|
①口口④ |⑥---|
47
①②⑤④ |①-②-|
口⑥②⑤ |③---|
③③⑥口 |④-⑤-|
口①④口 |⑥---|
48
②①④口 |①-②-|
③口②⑥ |③---|
③⑤口⑥ |④-⑤-|
①口⑤④ |⑥---|
49
①③口④ |①-②-|
口②②口 |③---|
③⑤⑤⑥ |④-⑤-|
口①④⑥ |⑥---|
50
③口③口 |①-②-|
②②①口 |③-④-|
口口口口
①④④口

口⑤口⑥
口口⑧⑥
⑤⑦⑧口 |⑤-⑥-|
口口口⑦ |⑦-⑧-|
51
④④②⑥ |①-②-|
①②⑦⑥ |③-④-|
⑤⑧⑧③ |⑤-⑥-|
①③⑤⑦ |⑦-⑧-|
52
口口②口 |①②③④|
③⑤口口 |⑤⑥⑦⑧|
⑧口口④
①⑥⑦口

⑩⑫口⑮
口口⑬⑨
口⑭口口 |⑨⑩⑪⑫|
⑯口口⑪ |⑬⑭⑮⑯|
53
③口①口 |①---|
②口口④ |②---|
③④①② |③---|
口④④口 |④---|
54
口口口① |①-②-|
口①口|
口口口|
口口口∧

口口口②
②口口口
口口②口
口口口口

∨口口口
|口③口 |③-④-|
|口口口
③口口口

⑤口口口
口口口口
>――⑤ |⑤-⑥-|
④口口④

口口⑦口
口口∧口
⑥⑦口⑥
口口口口 |⑦⑧⑨⑩|

口口⑧口
口⑨口⑩
口口口口
口口口口
55
口①口口 |①-②-|
口|口口
口|①口
口∧口口

口②口②
口口③口 |③-④-|
口口口口
>―③口

④口口口
⑤――<
口口口⑤ |⑤-⑥-|
口口④口

口口口口
⑥⑦口口
口口口口
口⑥>⑦ |⑦--⑧----⑨---|

口口口口
口口口口
口⑨口口
口口口⑧
56
>①口口 |①②③④⑤⑥|
∨口③<
⑤口口口
口口口口

口②口口
口口④口
⑥口口口
口口口口

口口⑦⑦
口口|| |⑦-⑧-|
口口||
口口∧∧

∨∨⑧⑧
||口口
||口口 |⑨-⑩-|
⑨⑨⑧口

口口口口
⑩口口∨
口⑪口⑪
⑩⑩口口 |⑪--⑫----⑬---|

口⑬口口
口口口口
口口口⑫
口口口口
57
口口口口 |①-②-|
口口口口
>―①口
口口口口

②口口口
口③―< |③-④-|
口口②口
口口口口

口口⑤口
⑦④⑦⑥
⑥⑧口口 |⑤-⑥-|
⑦⑤⑦④ |⑦--⑧|
58
口⑤口① |①②③④⑤⑥|
口∧∨∧
口口③口
口口口口

口⑥口②
口口口口
口口④口
口口口口

⑦口口口
|口口口 |⑦-⑧-|
|口口⑦
∧口口口

⑧口⑧∨
口口口|
口口口| |⑨-⑩-|
口口口⑨

口口口口
口⑪⑪口
口⑫口口
口⑩⑬⑩ |⑪-⑫⑬|
59
口口口口 |①-②-|
口口口口
①――<
①口口口

口口口②
>――③ |③-④-|
②口③口
口口口口

④⑤⑤口
口||④
口||口 |⑤-⑥-|
口∧∧口

口⑥⑥口
口口口口
口口口⑥
口口口口

口口口口
口>⑨口
口⑦<口
口口口口 |⑦⑧⑨⑩⑪⑫|

口口口口
口口⑩口
口⑧∨口
口口⑪口

口口口口
口口口口
口口口口
口口⑫口
60
口口口口 |①-②-|
口口口口
①口口口
>――①

口口口口
③――< |③-④-|
口口口口
②口口②

口∨口口
④|口④
口|口⑤ |⑤-⑥-|
口⑤口口

⑦口⑦⑥
口口|口
口口|口
口⑥∧口 |⑦-⑧-|

口口⑧口
口口口口
口⑧口口
口口口口
61
口∨口口 |①②③-|
∨①口口
①口口口
口口口口

口口口口
④②④口 |④-⑤-|
②口③⑤
⑤口③口

⑧⑥⑧⑥
∧口∧口
口口口口 |⑥-⑦-|
口⑦口⑦ |⑧-⑨-|

⑨口⑨口
口口口口
口口口口
口口口口
62
口口口口 |①---|
口①口口
①口①口
口口口口

口口口口
>――② |②-③-|
口口口口
口口②口

口∨口口
③|④③
口|口③ |④-⑤-|
口④口口

口口口⑤
口口口口
口⑥<口
⑥⑤口口 |⑥--⑦----⑧---|

⑧口口口
口口口口
口⑦口口
口口口口
63
口口①口 |①-②-|
口①|口
口口|口
口口∧口

口②②口
口口口口 |③-④-|
③――<
口口③口

口口口口
口口口口
④口④口 |⑤-⑥-|
>――⑤

口口口口
⑧口⑨口
口⑦口⑩
口口口⑥ |⑦⑧⑨⑩|
64
口③①① |①---|
口口口① |②-③-|
③口口口
②②口口

⑤口口⑦
⑥⑥口口
口⑤⑦口 |④-⑤-|
口口④④ |⑥-⑦-|
65
口④②口 |①-②-|
口口①① |③-④-|
④口口②
③③口口

⑦口口⑦
⑥⑥⑧口
口⑨口口 |⑤-⑥-|
口口⑤⑤ |⑦-⑧⑨|
66
口口①口 |①---|
口口口① |②-③-|
口口②①
②――<

口口口口
④――<
④口口口 |④-⑤-|
③口口③

口口口口
⑤⑥⑥⑦
口口口口
口口⑤口 |⑥---⑦-|
67
>――① |①-②-|
口口口口
口①口口
口口口口

②口口②
口口口口 |③-④-|
>――③
③口口口

口∨∨口
口||口
④||④ |⑤-⑥-|
口⑤⑤口

口⑦⑦口
⑥口⑦口
口口口口
口⑥⑥口 |⑦---|
68
①⑩⑩① |①-②-|
⑦③口④ |③-④⑤|
⑧①②⑤ |⑥-⑦⑧|
⑨⑨⑥⑥ |⑨-⑩-|
69
①口口② |①---②-|
口③②③ |--③---|
口①①口
口口口口

口口口口
④口口口
口⑥⑥⑤ |④---⑤-|
⑤口④④ |--⑥---|
70
①②①③ |①---|
⑤④⑤② |②--③|
②口⑦⑥ |-④--|
口①③④ |⑤-⑥⑦|
71
③②①口 |①-②-|
⑥⑤⑥② |③-④-|
④④⑦⑦ |-⑤--|
③①口⑤ |⑥-⑦-|
72
③①②① |①---|
口④⑤② |②--③|
⑥⑦⑤口 |-④--|
③②①④ |⑤-⑥⑦|
73
口①②③ |①-②-|
②口口④ |③-④-|
口口口③
④②①口

口口口口
口⑤⑥口
⑥口⑦口 |-⑤--|
口口⑦⑤ |⑥-⑦-|
74
①②①③ |①---②-|
②口口③ |--③---|
口口口②
③①口口

⑥口口口
口④⑤口
⑤④口口 |④---⑤-|
口⑥⑥④ |--⑥---|
75
口②①② |①---②-|
①口口③ |--③---|
口③②①
口口口③

⑥口口口
⑦④⑤口
⑤口口⑦ |④-⑤-|
④⑥口口 |⑥-⑦-|
76
口①②① |①-②-|
口⑤口③ |③④⑤-|
口口④口
口口①口

口口口口
⑨口⑦口
口⑧口口 |⑥-⑦⑧|
⑥口⑪⑩ |⑨-⑩⑪|
77
②③④⑫ |①-②③|
⑬⑦⑩⑥ |④-⑤⑥|
⑤⑪口⑧ |⑦⑧⑨⑩|
⑨①⑭口 |⑪⑫⑬⑭|
78
①③②口 |①--②|
口⑧⑥④ |③-④-|
口⑨①口 |⑤⑥⑦-|
口⑦⑨⑤ |⑧-⑨-|
79
口口④口 |①--②|
①口口口 |③-④-|
①口③②
①口口口

⑨⑤口⑥
⑩口⑦口
⑪口口口 |⑤⑥⑦-|
⑫口⑧口 |⑧---⑨⑩⑪⑫|
80
⑧④口⑦ |①--②|
口①⑤② |③-④-|
⑨①口⑥ |⑤⑥⑦-|
口①口③ |⑧-⑨-|
81
口口①口 |①--②|
④①口② |③-④-|
口①①口
③①①④

⑧⑤⑨⑧
口⑩⑥口
口口⑪⑦ |⑤⑥⑦-|
口⑫口口 |⑧---⑨⑩⑪⑫|
82
⑦③⑦口 |---①|
③口⑤① |②-③-|
口⑥口④ |④⑤⑥-|
⑧⑧②口 |⑦-⑧-|
83
口口⑧④ |①--②|
⑤②⑦口 |③-④-|
①⑥①⑧ |⑤⑥⑦-|
⑨⑨③口 |⑧-⑨-|
84
⑥④⑮⑦ |①②③④|
⑧⑫⑪① |⑤⑥⑦⑧|
②⑩⑨⑬ |⑨⑩⑪⑫|
⑭⑯⑤③ |⑬⑭⑮⑯|
85
②③口③ |①---|
④口④① |②---|
②口口口 |③---|
口口口① |④---|
86
口>①口 |①---|
口①<口 |----|
>①①< |----|
>①①< |----|
87
口口①口 |①---|
口①口口 |----|
口①①口 |----|
口①①口 |----|
1116
Dustup

EXTREME

Level: 10.9
BPM: 190
Notes: 1116 (62)

1
口口口口 |----|
口口口口 |----|
口口口口 |----|
口口口口 |----|
2
①口②② |①---|
①口④口 |②---|
①口口④ |③---|
①口③③ |④---|
3
口①口② |①---|
③①口② |②---|
③①口④ |③---|
口①口④ |④---|
4
②②①口 |①---|
口④①口 |②---|
④口①口 |③---|
③③①口 |④---|
5
口②②① |①---|
口④①③ |②---|
口口①① |③---|
口④①① |④---|
6
①口④② |①---|
①口②口 |②---|
①口④④ |③---|
①口③③ |④---|
7
口①口② |①---|
③①口② |②---|
④①口④ |③---|
③①口④ |④---|
8
②口①口 |①---|
④②①口 |②---|
④④①口 |③---|
③③①口 |④---|
9
口③②① |①---|
口②①③ |②---|
口④①① |③---|
口④①① |④---|
10
①口口② |①--②|
①口④口 |--③④|
①口口口
①口口③

口口⑥口
⑨口口⑦
口口口⑤ |-⑤⑥-|
口口⑧口 |⑦-⑧⑨|
11
口①口② |①--②|
口①口口 |--③④|
口①口④
③①口口

⑦⑧口口
口⑨口⑥
⑤⑩口口 |-⑤⑥-|
口⑪口口 |⑦---⑧⑨⑩⑪|
12
口口①口 |①--②|
②口①口 |--③④|
④口①口
③口①口

⑥口⑧口
口⑦口⑤
口⑨口口 |-⑤⑥-|
口口口口 |⑦-⑧⑨|
13
口口口① |①--②|
②口①口 |--③④|
口口①①
④③①①

⑦⑤⑧口
口口⑨口
⑥口⑩口 |-⑤⑥-|
口口⑪口 |⑦---⑧⑨⑩⑪|
14
⑦⑥口④ |①-②-|
③①口② |③-④-|
⑦③口⑤ |⑤-⑥-|
口⑤⑧① |⑦-⑧-|
15
⑧口①⑥ |①-②-|
⑤①③③ |③-④-|
口⑦⑦口 |⑤-⑥-|
④⑤口② |⑦-⑧-|
16
口②③口 |①②③④|
口⑥口⑦ |⑤⑥⑦⑧|
④口口①
⑧口⑤口

⑮口口⑭
⑪口⑨口
口口⑫⑯ |⑨⑩⑪⑫|
口⑬口⑩ |⑬⑭⑮⑯|
17
④①①④ |①---|
口口口② |②---|
②口口口 |③---|
③口口③ |④---|
18
口>①口 |①---|
口①<口 |----|
>①①< |----|
>①①< |----|
19
口口①口 |①---|
口①口口 |----|
口①①口 |----|
口①①口 |----|
20
①①①① |①---|
口口口口 |----|
口口口口 |②---|
②②②② |----|
21
口口口口 |①---|
①①①① |----|
①①①① |----|
口口口口 |----|
22
⑩口①⑨ |①--②|
④①⑥⑤ |③-④-|
①⑨⑧⑦ |⑤⑥⑦⑧|
②②口③ |⑨-⑩-|
23
口①①口 |①--②|
口口口④ |③-④-|
口口口口
③口②②

⑨口⑩口
⑤⑥口口
⑦⑧⑨口 |⑤⑥⑦⑧|
口口口口 |⑨-⑩-|
24
口③口① |①--②|
④口口口 |③-④-|
口口口口
②①②口

口口⑨口
口口⑤⑥
口⑨⑦⑧ |⑤⑥⑦⑧|
口⑩口口 |⑨-⑩-|
25
①⑨口② |①--②|
⑥⑤④口 |③-④-|
⑧⑦⑨口 |⑤⑥⑦⑧|
③口⑩① |⑨-⑩-|
26
①口①口 |①--②|
口④口口 |③-④-|
口口口口
②②口③

⑩口口⑨
口口⑥⑤
口⑨⑧⑦ |⑤⑥⑦⑧|
口口口口 |⑨-⑩-|
27
⑨①③口 |①--②|
⑤⑥口④ |③-④-|
⑦⑧⑨口 |⑤⑥⑦⑧|
②②①⑩ |⑨-⑩-|
28
口①⑨① |①--②|
④⑨⑤⑥ |③-④-|
⑩口⑦⑧ |⑤⑥⑦⑧|
②②③口 |⑨-⑩-|
29
①②口① |①--②|
④口口口 |③-④-|
口口口口
口③口②

⑫口口⑪
口⑧⑦口
⑩⑥⑤⑨ |⑤⑥⑦⑧|
⑨口口口 |⑨⑩⑪⑫|
30
口②③口 |①-②-|
③口口① |③---|
口口口口
口③①口

口口口口
口口④口
口⑥⑥口 |④-⑤-|
⑤口⑦④ |⑥-⑦-|
31
③⑤④① |①-②-|
⑤③⑦① |③-④-|
②⑧⑥① |⑤-⑥-|
口⑤⑦口 |⑦-⑧-|
32
⑦④⑤② |①-②-|
口③口① |③---|
④⑥⑥① |④-⑤-|
③口口③ |⑥-⑦-|
33
口口⑩① |①②③④|
⑨⑫口② |⑤⑥⑦⑧|
⑧口⑪③ |⑨-⑩-|
⑦⑥⑤④ |⑪-⑫-|
34
②④⑥① |①-②-|
⑦口①④ |③---|
⑤③⑥口 |④-⑤-|
③口③④ |⑥-⑦-|
35
③口口① |①-②-|
口③①口 |③-④-|
口口口①
口②口④

口⑤口⑧
口口口⑥
口⑤⑦口 |⑤-⑥-|
口口⑦口 |⑦-⑧-|
36
口⑤④⑦ |①-②-|
①③②口 |③---|
①⑥⑥④ |④-⑤-|
口③口③ |⑥-⑦-|
37
①⑩口口 |①②③④|
②口⑫⑨ |⑤⑥⑦⑧|
③⑪口⑧ |⑨-⑩-|
④⑤⑥⑦ |⑪-⑫-|
38
①口口④ |①-②-|
⑦①⑧口 |③-④-|
③⑥③⑤ |⑤-⑥-|
口②口⑤ |⑦-⑧-|
39
口①②口 |①-②-|
口③口口 |③-④-|
④口②口
口①口口

口⑧口⑤
口口⑦口
口⑥口⑥ |⑤-⑥-|
口口口⑤ |⑦-⑧-|
40
口口②口 |①-②-|
①⑤口③ |③-④-|
口⑧⑥口 |⑤-⑥-|
①④③⑦ |⑦-⑧-|
41
④③②① |①②③④|
⑤口口口 |⑤⑥⑦⑧|
⑥口口口
⑦⑧口口

口口口⑫
口⑩⑨口
口⑪口⑨ |⑨-⑩-|
口口⑪口 |⑪-⑫-|
42
口⑨①⑩ |①-②-|
②⑥⑦③ |③-④-|
⑤⑨①⑧ |⑤⑥⑦⑧|
口④口③ |⑨-⑩-|
43
口口①口 |①-②-|
②口口② |③-④-|
口口③口
口④①口

⑤口⑧口
口⑦⑥口
⑥口口口 |⑤-⑥-|
⑤口口口 |⑦-⑧-|
44
口口口③ |①-②-|
①口口口 |③-④-|
口①口③
④口口②

口口口口
口⑧⑦口
⑨⑩⑨口 |⑤⑥⑦⑧|
口⑥⑤口 |⑨-⑩-|
45
①②③④ |①②③④|
口口口⑤ |⑤⑥⑦⑧|
口口口⑥
口口⑧⑦

⑫口口口
⑨⑪⑨口
口口口口 |⑨-⑩-|
口⑩口口 |⑪-⑫-|
46
口①④③ |①-②-|
⑥⑥口③ |③---|
②②⑤⑤ |④-⑤-|
①口口④ |⑥---|
47
①②⑤④ |①-②-|
口⑥②⑤ |③---|
③③⑥口 |④-⑤-|
口①④口 |⑥---|
48
②①④口 |①-②-|
③口②⑥ |③---|
③⑤口⑥ |④-⑤-|
①口⑤④ |⑥---|
49
①③口④ |①-②-|
口②②口 |③---|
③⑤⑤⑥ |④-⑤-|
口①④⑥ |⑥---|
50
③口③口 |①-②-|
②②①口 |③-④-|
口口口口
①④④口

口⑤口⑥
口口⑧⑥
⑤⑦⑧口 |⑤-⑥-|
口口口⑦ |⑦-⑧-|
51
④④②⑥ |①-②-|
①②⑦⑥ |③-④-|
⑤⑧⑧③ |⑤-⑥-|
①③⑤⑦ |⑦-⑧-|
52
口口②口 |①②③④|
③⑤口口 |⑤⑥⑦⑧|
⑧口口④
①⑥⑦口

⑩⑫口⑮
口口⑬⑨
口⑭口口 |⑨⑩⑪⑫|
⑯口口⑪ |⑬⑭⑮⑯|
53
③口①口 |①---|
②口口④ |②---|
③④①② |③---|
口④④口 |④---|
54
口口口① |①-②-|
口①口|
口口口|
口口口∧

口口口②
②口口口
口口②口
口口口口

∨口口口
|口③口 |③-④-|
|口口口
③口口口

⑤口口口
口口口口
>――⑤ |⑤-⑥-|
④口口④

口口⑦口
口口∧口
⑥⑦口⑥
口口口口 |⑦⑧⑨⑩|

口口⑧口
口⑨口⑩
口口口口
口口口口
55
口①口口 |①-②-|
口|口口
口|①口
口∧口口

口②口②
口口③口 |③-④-|
口口口口
>―③口

④口口口
⑤――<
口口口⑤ |⑤-⑥-|
口口④口

口口口口
⑥⑦口口
口口口口
口⑥>⑦ |⑦--⑧----⑨---|

口口口口
口口口口
口⑨口口
口口口⑧
56
>①口口 |①②③④⑤⑥|
∨口③<
⑤口口口
口口口口

口②口口
口口④口
⑥口口口
口口口口

口口⑦⑦
口口|| |⑦-⑧-|
口口||
口口∧∧

∨∨⑧⑧
||口口
||口口 |⑨-⑩-|
⑨⑨⑧口

口口口口
⑩口口∨
口⑪口⑪
⑩⑩口口 |⑪--⑫----⑬---|

口⑬口口
口口口口
口口口⑫
口口口口
57
口口口口 |①-②-|
口口口口
>―①口
口口口口

②口口口
口③―< |③-④-|
口口②口
口口口口

口口⑤口
⑦④⑦⑥
⑥⑧口口 |⑤-⑥-|
⑦⑤⑦④ |⑦--⑧|
58
口⑤口① |①②③④⑤⑥|
口∧∨∧
口口③口
口口口口

口⑥口②
口口口口
口口④口
口口口口

⑦口口口
|口口口 |⑦-⑧-|
|口口⑦
∧口口口

⑧口⑧∨
口口口|
口口口| |⑨-⑩-|
口口口⑨

口口口口
口⑪⑪口
口⑫口口
口⑩⑬⑩ |⑪-⑫⑬|
59
口口口口 |①-②-|
口口口口
①――<
①口口口

口口口②
>――③ |③-④-|
②口③口
口口口口

④⑤⑤口
口||④
口||口 |⑤-⑥-|
口∧∧口

口⑥⑥口
口口口口
口口口⑥
口口口口

口口口口
口>⑨口
口⑦<口
口口口口 |⑦⑧⑨⑩⑪⑫|

口口口口
口口⑩口
口⑧∨口
口口⑪口

口口口口
口口口口
口口口口
口口⑫口
60
口口口口 |①-②-|
口口口口
①口口口
>――①

口口口口
③――< |③-④-|
口口口口
②口口②

口∨口口
④|口④
口|口⑤ |⑤-⑥-|
口⑤口口

⑦口⑦⑥
口口|口
口口|口
口⑥∧口 |⑦-⑧-|

口口⑧口
口口口口
口⑧口口
口口口口
61
口∨口口 |①②③-|
∨①口口
①口口口
口口口口

口口口口
④②④口 |④-⑤-|
②口③⑤
⑤口③口

⑧⑥⑧⑥
∧口∧口
口口口口 |⑥-⑦-|
口⑦口⑦ |⑧-⑨-|

⑨口⑨口
口口口口
口口口口
口口口口
62
口口口口 |①---|
口①口口
①口①口
口口口口

口口口口
>――② |②-③-|
口口口口
口口②口

口∨口口
③|④③
口|口③ |④-⑤-|
口④口口

口口口⑤
口口口口
口⑥<口
⑥⑤口口 |⑥--⑦----⑧---|

⑧口口口
口口口口
口⑦口口
口口口口
63
口口①口 |①-②-|
口①|口
口口|口
口口∧口

口②②口
口口口口 |③-④-|
③――<
口口③口

口口口口
口口口口
④口④口 |⑤-⑥-|
>――⑤

口口口口
⑧口⑨口
口⑦口⑩
口口口⑥ |⑦⑧⑨⑩|
64
口③①① |①---|
口口口① |②-③-|
③口口口
②②口口

⑤口口⑦
⑥⑥口口
口⑤⑦口 |④-⑤-|
口口④④ |⑥-⑦-|
65
口④②口 |①-②-|
口口①① |③-④-|
④口口②
③③口口

⑦口口⑦
⑥⑥⑧口
口⑨口口 |⑤-⑥-|
口口⑤⑤ |⑦-⑧⑨|
66
口口①口 |①---|
口口口① |②-③-|
口口②①
②――<

口口口口
④――<
④口口口 |④-⑤-|
③口口③

口口口口
⑤⑥⑥⑦
口口口口
口口⑤口 |⑥---⑦-|
67
>――① |①-②-|
口口口口
口①口口
口口口口

②口口②
口口口口 |③-④-|
>――③
③口口口

口∨∨口
口||口
④||④ |⑤-⑥-|
口⑤⑤口

口⑦⑦口
⑥口⑦口
口口口口
口⑥⑥口 |⑦---|
68
①⑩⑩① |①-②-|
⑦③口④ |③-④⑤|
⑧①②⑤ |⑥-⑦⑧|
⑨⑨⑥⑥ |⑨-⑩-|
69
①口口② |①---②-|
口③②③ |--③---|
口①①口
口口口口

口口口口
④口口口
口⑥⑥⑤ |④---⑤-|
⑤口④④ |--⑥---|
70
①②①③ |①---|
⑤④⑤② |②--③|
②口⑦⑥ |-④--|
口①③④ |⑤-⑥⑦|
71
③②①口 |①-②-|
⑥⑤⑥② |③-④-|
④④⑦⑦ |-⑤--|
③①口⑤ |⑥-⑦-|
72
③①②① |①---|
口④⑤② |②--③|
⑥⑦⑤口 |-④--|
③②①④ |⑤-⑥⑦|
73
口①②③ |①-②-|
②口口④ |③-④-|
口口口③
④②①口

口口口口
口⑤⑥口
⑥口⑦口 |-⑤--|
口口⑦⑤ |⑥-⑦-|
74
①②①③ |①---②-|
②口口③ |--③---|
口口口②
③①口口

⑥口口口
口④⑤口
⑤④口口 |④---⑤-|
口⑥⑥④ |--⑥---|
75
口②①② |①---②-|
①口口③ |--③---|
口③②①
口口口③

⑥口口口
⑦④⑤口
⑤口口⑦ |④-⑤-|
④⑥口口 |⑥-⑦-|
76
口①②① |①-②-|
口⑤口③ |③④⑤-|
口口④口
口口①口

口口口口
⑨口⑦口
口⑧口口 |⑥-⑦⑧|
⑥口⑪⑩ |⑨-⑩⑪|
77
②③④⑫ |①-②③|
⑬⑦⑩⑥ |④-⑤⑥|
⑤⑪口⑧ |⑦⑧⑨⑩|
⑨①⑭口 |⑪⑫⑬⑭|
78
①③②口 |①--②|
口⑧⑥④ |③-④-|
口⑨①口 |⑤⑥⑦-|
口⑦⑨⑤ |⑧-⑨-|
79
口口④口 |①--②|
①口口口 |③-④-|
①口③②
①口口口

⑨⑤口⑥
⑩口⑦口
⑪口口口 |⑤⑥⑦-|
⑫口⑧口 |⑧---⑨⑩⑪⑫|
80
⑧④口⑦ |①--②|
口①⑤② |③-④-|
⑨①口⑥ |⑤⑥⑦-|
口①口③ |⑧-⑨-|
81
口口①口 |①--②|
④①口② |③-④-|
口①①口
③①①④

⑧⑤⑨⑧
口⑩⑥口
口口⑪⑦ |⑤⑥⑦-|
口⑫口口 |⑧---⑨⑩⑪⑫|
82
⑦③⑦口 |---①|
③口⑤① |②-③-|
口⑥口④ |④⑤⑥-|
⑧⑧②口 |⑦-⑧-|
83
口口⑧④ |①--②|
⑤②⑦口 |③-④-|
①⑥①⑧ |⑤⑥⑦-|
⑨⑨③口 |⑧-⑨-|
84
⑥④⑮⑦ |①②③④|
⑧⑫⑪① |⑤⑥⑦⑧|
②⑩⑨⑬ |⑨⑩⑪⑫|
⑭⑯⑤③ |⑬⑭⑮⑯|
85
②③口③ |①---|
④口④① |②---|
②口口口 |③---|
口口口① |④---|
86
口>①口 |①---|
口①<口 |----|
>①①< |----|
>①①< |----|
87
口口①口 |①---|
口①口口 |----|
口①①口 |----|
口①①口 |----|

不確定度: 0

最終更新:2022年02月23日 12:02