アットウィキロゴ

1116
Dustup

ADVANCED

Level: 10.2
BPM: 190
Notes: 818 (50)

1
口口口口 |----|
口口口口 |----|
口口口口 |----|
口口口口 |----|
2
①口口口 |①---|
①口口口 |----|
①口口口 |----|
①口口口 |----|
3
口①口口 |①---|
口①口口 |----|
口①口口 |----|
口①口口 |----|
4
口口①口 |①---|
口口①口 |----|
口口①口 |----|
口口①口 |----|
5
口口口① |①---|
口口①口 |----|
口口①① |----|
口口①① |----|
6
①口口口 |①---|
①口②口 |②---|
①口口口 |----|
①口③口 |③---|
7
口①口口 |①---|
②①口口 |②---|
口①口口 |----|
③①口口 |③---|
8
口口①口 |①---|
口②①口 |②---|
口口①口 |----|
口③①口 |③---|
9
口口口① |①---|
②口①口 |②---|
口口①① |----|
③口①① |③---|
10
③①口② |①--②|
⑤①口⑤ |--③-|
口①口口 |-④--|
口①口④ |⑤---|
11
④口①口 |①--②|
⑤口①⑤ |--③-|
②口①③ |-④--|
口口①口 |⑤---|
12
口①口④ |①--②|
口①口口 |--③-|
⑤①口⑤ |-④--|
③①口② |⑤---|
13
口口①口 |①--②|
②①口③ |--③-|
⑤①①⑤ |-④--|
④①①口 |⑤---|
14
③口①① |①-②-|
⑧口⑥④ |③-④-|
口②口口 |⑤-⑥-|
⑤口⑦口 |⑦-⑧-|
15
口③①① |①-②-|
口口口口 |③-④-|
⑤②⑥④ |⑤-⑥-|
口⑦⑧口 |⑦-⑧-|
16
①⑤⑥② |①②③④|
③⑦⑧④ |⑤⑥⑦⑧|
⑨⑬⑭⑩ |⑨⑩⑪⑫|
⑪⑮⑯⑫ |⑬⑭⑮⑯|
17
①口口① |①---|
②口口② |②---|
③口口③ |③---|
④口口④ |④---|
18
口>①口 |①---|
口①<口 |----|
>①①< |----|
>①①< |----|
19
口口①口 |①---|
口①口口 |----|
口①①口 |----|
口①①口 |----|
20
①口口① |①---|
口口口口 |----|
口口口口 |②---|
②口口② |----|
21
口口口口 |①---|
口①①口 |----|
口①①口 |----|
口口口口 |----|
22
口口②⑦ |①--②|
①⑥⑤④ |--③-|
口①口③ |④⑤⑥-|
口口⑧口 |⑦-⑧-|
23
③①⑦口 |①--②|
①⑥⑤④ |--③-|
口⑧②口 |④⑤⑥-|
口口口口 |⑦-⑧-|
24
⑦②口口 |①--②|
④⑤⑥口 |--③-|
③口口① |④⑤⑥-|
口⑧①口 |⑦-⑧-|
25
口⑦①③ |①--②|
④⑤⑥① |--③-|
口口⑧口 |④⑤⑥-|
口口②口 |⑦-⑧-|
26
口口②⑦ |①--②|
口⑥⑤④ |--③-|
①①口③ |④⑤⑥-|
口口⑧口 |⑦-⑧-|
27
③①⑦口 |①--②|
①⑥⑤④ |--③-|
口⑧②口 |④⑤⑥-|
口口口口 |⑦-⑧-|
28
⑦②口口 |①--②|
④⑤⑥口 |--③-|
③口口① |④⑤⑥-|
口⑧①口 |⑦-⑧-|
29
口⑦①③ |①--②|
④⑤⑥① |--③-|
口口⑧口 |④⑤⑥-|
口口②口 |⑦-⑧-|
30
①口③口 |①-②-|
口口口口 |③---|
⑦②口④ |④-⑤-|
口⑥⑤口 |⑥-⑦-|
31
⑤①⑤① |①-②-|
②口口⑥ |③-④-|
口⑦③口 |⑤-⑥-|
④口口⑧ |⑦-⑧-|
32
口①口③ |①-②-|
口口口口 |③---|
④口②⑦ |④-⑤-|
口⑤⑥口 |⑥-⑦-|
33
⑤⑥⑦⑧ |①②③④|
①②③④ |⑤⑥⑦⑧|
⑨口⑪口 |⑨-⑩-|
口⑩口⑫ |⑪-⑫-|
34
口⑤⑥口 |①-②-|
④②口⑦ |③---|
口口口口 |④-⑤-|
①口③口 |⑥-⑦-|
35
④口口⑧ |①-②-|
口⑦③口 |③-④-|
②口口⑥ |⑤-⑥-|
⑤①⑤① |⑦-⑧-|
36
口⑥⑤口 |①-②-|
⑦口②④ |③---|
口口口口 |④-⑤-|
口①口③ |⑥-⑦-|
37
口⑪口⑨ |①②③④|
⑫口⑩口 |⑤⑥⑦⑧|
④③②① |⑨-⑩-|
⑧⑦⑥⑤ |⑪-⑫-|
38
③口①④ |①-②-|
口⑤口① |③---|
口②口⑥ |④-⑤-|
口⑦口口 |⑥-⑦-|
39
口④口口 |①-②-|
③⑦①① |③-④-|
⑥②⑧口 |⑤-⑥-|
口口⑤⑤ |⑦-⑧-|
40
③口①④ |①-②-|
口⑤口① |③---|
口②口⑥ |④-⑤-|
口⑦口口 |⑥-⑦-|
41
⑧⑫⑤⑨ |①②③④|
④口⑩① |⑤⑥⑦⑧|
⑥⑪⑦口 |⑨-⑩-|
②口口③ |⑪-⑫-|
42
口口口口 |①-②-|
口②口口 |③---|
口口口①
③口①口

④口口口
口口⑤口
⑥口口口 |④-⑤-|
口口⑦口 |⑥-⑦-|
43
口口④口 |①-②-|
①①⑦③ |③-④-|
口⑧②⑥ |⑤-⑥-|
⑤⑤口口 |⑦-⑧-|
44
④①口③ |①-②-|
①口⑤口 |③---|
⑥口②口 |④-⑤-|
口口⑦口 |⑥-⑦-|
45
⑨⑤⑫⑧ |①②③④|
①⑩口④ |⑤⑥⑦⑧|
口⑦⑪⑥ |⑨-⑩-|
③口口② |⑪-⑫-|
46
口③⑥口 |①-②-|
②口口⑤ |③---|
④④口口 |④-⑤-|
③①①⑥ |⑥---|
47
口③⑥口 |①-②-|
②口口⑤ |③---|
④④①① |④-⑤-|
③口口⑥ |⑥---|
48
口③⑥口 |①-②-|
②口口⑤ |③---|
④④①① |④-⑤-|
③口口⑥ |⑥---|
49
口③⑥口 |①-②-|
②口口⑤ |③---|
④④①① |④-⑤-|
③口口⑥ |⑥---|
50
口④⑦③ |①-②-|
①口口口 |③-④-|
口⑥⑧⑤ |⑤-⑥-|
口口②口 |⑦-⑧-|
51
⑤⑤⑦⑦ |①-②-|
③③①① |③-④-|
⑥口口⑧ |⑤-⑥-|
口②④口 |⑦-⑧-|
52
口口口口 |①②③④|
③⑦②⑥ |⑤⑥⑦⑧|
口⑤⑧口
①口口④

⑮⑨口⑫
口口⑯口
⑪口口⑭ |⑨⑩⑪⑫|
口⑬⑩口 |⑬⑭⑮⑯|
53
口③③口 |①---|
①口口② |②---|
口④④口 |③---|
①④④② |④---|
54
①―<① |①-②-|
口口口口
口口口口
口口口口

②口口口
③―<③ |③-④-|
口口口②
口口口口

口口口口
④口⑤口
⑤―<口 |⑤-⑥-|
口口口④

口口口口
口口口口
⑥口口口
⑦―<口 |⑦-⑧-|

口口口口
口口口口
口口⑧口
⑧口口口
55
口>―① |①-②-|
口口口口
口口口口
口口口口

口口口②
口>―③ |③-④-|
口口口口
口口口口

口口口口
口口口④
口>―⑤ |⑤-⑥-|
口口口口

口口口口
口口口口
⑧口口⑥
口⑦⑦口 |⑦---⑧-|
56
∨∨∨口 |①②③④⑤⑥|
①③⑤口
口口口口
口口口口

口口口口
②④⑥口
口口口口
口口口口

口>―⑦
口口口口 |⑦-⑧-|
口口口口
口口口口

⑨―<⑧
口口口口
口⑧口口 |⑨-⑩-|
口口口口

⑩口⑫口
口口口口
口口⑪⑪
口口口口 |⑪---⑫-|
57
口口口口 |①-②-|
口口口口
口口口口
①―<口

口口口口
口口口口 |③-④-|
③―<口
②口口口

⑤⑤⑦口
口口口口
④⑦口⑧ |⑤-⑥-|
口口⑥⑥ |⑦--⑧|
58
口∨∨∨ |①②③④⑤⑥|
口⑤③①
口口口口
口口口口

口口口口
口⑥④② |⑦-⑧-|
⑦―<口
口口口口

口⑨口⑧
口|口口
⑧∧口口 |⑨-⑩-|
口口口口

口⑩口口
口口口口
口口口口
口⑪⑪口 |⑪---|
59
口口口口 |①-②-|
①―<①
口口口口
口口口口

口口②口
②口口口 |③-④-|
③―<③
口口口口

口口口口
口口④口
④口口口 |⑤-⑥-|
⑤―<⑤

口∨口∨
口⑦∨⑪
口口⑨口
⑥口口口 |⑦⑧⑨⑩⑪⑫|

口口口口
口⑧口⑫
口口⑩口
口口口口
60
①口口口 |①-②-|
|口口口
∧口口口
口口口口

②③口口
口|口口 |③-④-|
口∧口口
口口口口

口④⑤口
口口|口
口口∧口 |⑤-⑥-|
口口口口

口口⑥⑦
口口口|
口口口∧
口口口口 |⑦-⑧-|

口口口⑧
口口口口
口口口口
口口口口
61
口⑥口口 |①---|
②④口② |②-③-|
⑥①①口 |④-⑤-|
③口⑤③ |⑥---|
62
口>―② |①---|
口口口口 |②-③-|
口口①①
口口口口

口口口③
③口④口
口口|口 |④-⑤-|
口口∧口

口口口口
口口⑤口
口⑥―<
⑤口口口 |⑥-⑦-|

口口口口
口口口⑦
口⑦口口
口口口口
63
①―<口 |①-②-|
口口口口
口口口口
口口口口

②口口口
口③口口 |③-④-|
口|口②
口∧口口

口口④口
口④口口
>―⑤口 |⑤-⑥-|
口口口口

口口口口
⑥口口口
口口⑥口
⑩⑨⑧⑦ |⑦⑧⑨⑩|
64
口⑤⑦③ |①---|
⑥②①④ |②-③-|
②⑥④① |④-⑤-|
口口口口 |⑥-⑦-|
65
②⑥口④ |①-②-|
⑧口⑦⑦ |③-④-|
③⑨⑤① |⑤-⑥-|
口③①⑤ |⑦-⑧⑨|
66
口口②口 |①---|
口②|口 |②-③-|
口口∧口
口口①口

④口③④
口口口|
口口口∧ |④-⑤-|
口③口口

口⑤口⑤
口口⑥⑦
口口口⑥
口口口口 |⑥---⑦-|
67
口口口口 |①-②-|
口口口口
①―<口
口口①口

口口口口
③―<口 |③-④-|
②口③口
口口口②

⑤―<⑤
④口口口
口④口口 |⑤-⑥-|
口口口口

⑥⑦⑦口
口口口口
口口口⑥
口口口口 |⑦---|
68
⑨⑨口口 |①-②-|
③口⑤① |③-④-|
⑥⑦⑧口 |⑤-⑥⑦|
②口⑤④ |⑧-⑨-|
69
口⑥⑥① |①---②-|
④②④③ |--③---|
⑤口⑤① |④---⑤-|
口②口③ |--⑥---|
70
①口⑦⑥ |①---|
口④口② |②--③|
口口⑤⑤ |-④--|
①口③口 |⑤-⑥⑦|
71
④①口口 |①-②-|
口⑤③⑥ |③-④-|
②⑤口口 |-⑤--|
口口⑦口 |⑥-⑦-|
72
口③口① |①---|
⑤⑤口口 |②--③|
②口④口 |-④--|
⑥⑦口① |⑤-⑥⑦|
73
口⑦⑤口 |①-②-|
口口⑤② |③-④-|
⑥③口口 |-⑤--|
口口①④ |⑥-⑦-|
74
①口⑥③ |①---②-|
④④⑥③ |--③---|
口②②口 |④---⑤-|
①口⑤⑤ |--⑥---|
75
④④⑦口 |①---②-|
⑥⑦⑥② |--③---|
③③⑤② |④-⑤-|
①①⑤口 |⑥-⑦-|
76
口⑥口① |①-②-|
⑩⑪口⑤ |③④⑤-|
⑦④⑧③ |⑥-⑦⑧|
⑨②口① |⑨-⑩⑪|
77
⑧口⑤⑪ |①-②③|
口⑭①⑦ |④-⑤⑥|
⑫⑥⑨⑬ |⑦⑧⑨⑩|
⑩④③② |⑪⑫⑬⑭|
78
⑥④⑧口 |①--②|
①口①⑤ |③-④-|
口口⑦口 |⑤-⑥-|
口口③② |⑦-⑧-|
79
口⑤⑦④ |①--②|
口口口⑦ |③-④-|
口①⑥① |⑤-⑥-|
②③口口 |⑦---|
80
⑦④口⑤ |①--②|
①口①口 |③-④-|
⑧口⑥口 |⑤-⑥-|
口口③② |⑦-⑧-|
81
口口①④ |①--②|
口⑤口⑦ |③-④-|
口①口① |⑤-⑥-|
②③⑥⑦ |⑦---|
82
②③口口 |①--②|
①⑧①⑥ |③-④-|
⑤口④口 |⑤-⑥-|
口⑦口口 |⑦-⑧-|
83
口口③② |①--②|
④口⑥口 |③-④-|
⑦①口① |⑤-⑥-|
口⑦⑤口 |⑦---|
84
⑦①⑭④ |①②③④|
⑨⑤⑫⑥ |⑤⑥⑦⑧|
⑬③⑧② |⑨⑩⑪⑫|
⑪⑮⑩⑯ |⑬⑭⑮⑯|
85
口①口口 |①---|
③④④② |②---|
口④④② |③---|
③口③口 |④---|
86
①①①① |①---|
∧∧∧∧ |----|
口口口口 |----|
口口口口 |----|
87
①①①① |①---|
口口口口 |----|
口口口口 |----|
口口口口 |----|

不確定度: 0

最終更新:2022年02月23日 12:02