アットウィキロゴ

POSSESSION (BEMANI SYMPHONY Arr.)
TAG underground × 中村 康隆 + gaQdan

EXTREME

Level: 10.2
BPM: 180
Notes: 841

1
口口口口 |----|
口口口口 |----|
口口口口 |----|
口口口口 |----|
2
口③⑥口 |①-②-|
③口口⑥ |③-④-|
⑤口⑧② |⑤-⑥-|
⑦①④口 |⑦-⑧-|
3
①口⑥④ |①-②-|
⑤①④⑧ |③-④-|
⑦③口⑥ |⑤-⑥-|
口口⑧② |⑦-⑧-|
4
②⑤口② |①---|
⑤②②口 |②---|
口口口④ |③-④-|
①③⑥口 |⑤-⑥-|
5
口口②口 |①-②-|
口口口② |③-④-|
①口④口
③口口口

⑤口口⑥
口⑤⑥口
⑧口口⑦ |⑤-⑥-|
口⑧⑦口 |⑦-⑧-|
6
口⑥③口 |①-②-|
⑥口口③ |③-④-|
⑧②⑤口 |⑤-⑥-|
④口⑦① |⑦-⑧-|
7
④⑥口① |①-②-|
⑥④①⑤ |③-④-|
口⑧口③ |⑤-⑥-|
⑧②口⑦ |⑦-⑧-|
8
②口⑤② |①---|
口②②⑤ |②---|
④口①口 |③-④-|
口⑥③口 |⑤-⑥-|
9
口②口口 |①-②-|
②口口口 |③-④-|
口④口①
口口口③

⑥口口⑤
口⑥⑤口
⑦口口⑧ |⑤-⑥-|
口⑦⑧口 |⑦-⑧-|
10
口①①口 |①---|
口口③口 |②---|
口口口口 |③---|
②口口④ |④---|
11
口口口口 |①---|
口口口② |②---|
口口口口
口①口口

口③④口
口⑤⑥口
口⑦⑧口 |③④⑤⑥|
口⑨⑩口 |⑦⑧⑨⑩|
12
①③口② |①---|
②口③口 |②---|
①口口④ |③---|
④口口口 |④---|
13
口口口④ |①---|
④②口② |②---|
口①③口 |③---|
口③①口 |④---|
14
口③③口 |①-②-|
口⑤口④ |③---|
②④口② |④---|
①口⑤① |⑤---|
15
口④②口 |①---|
②口口③ |②---|
口③①口 |③---|
口①④口 |④---|
16
④口口② |①-②-|
口④②口 |--③-|
③⑤⑤① |④---|
①口口③ |⑤---|
17
③③①① |①---|
③口口① |②---|
②口口④ |③---|
②②④④ |④---|
18
口口③⑥ |①-②-|
⑤①①口 |③---|
口①①口 |④-⑤-|
④②口口 |--⑥-|
19
口③口口 |--①-|
口①④口 |②---|
口⑤口口 |③-④-|
⑥口②⑥ |⑤-⑥-|
20
口④④⑦ |①-②-|
①⑥口① |③-④-|
口口③口 |⑤-⑥-|
口②⑤口 |--⑦-|
21
①口⑥口 |--①-|
口⑤口⑤ |②---|
口②④口 |③-④-|
口③口③ |⑤-⑥-|
22
⑧口口口 |①-②-|
口⑥③⑦ |③-④-|
①②口① |⑤-⑥-|
④口⑤④ |⑦-⑧-|
23
⑯⑫⑨⑦ |①②③④|
④⑧③⑮ |⑤⑥⑦⑧|
⑭⑥⑤① |⑨⑩⑪⑫|
⑩②⑬⑪ |⑬⑭⑮⑯|
24
口口口⑥ |①-②-|
③⑦②口 |③-④-|
口④口① |⑤-⑥-|
⑤口口⑧ |⑦-⑧-|
25
口④⑧口 |①-②-|
口⑧②⑤ |③-④-|
⑥⑤③⑦ |⑤-⑥-|
⑦①⑥口 |⑦-⑧-|
26
①⑧口② |①-②-|
③口口口 |③-④-|
⑤口④⑥ |⑤-⑥-|
⑦口口口 |⑦-⑧-|
27
①口口⑥ |①-②-|
③⑧②口 |③-④-|
⑤④口口 |⑤-⑥-|
⑦口口口 |⑦-⑧-|
28
①⑥口口 |①-②-|
③口口⑧ |③-④-|
⑤口口④ |⑤-⑥-|
⑦口②口 |⑦-⑧-|
29
①口口⑧ |①-②-|
③口⑦口 |③-④-|
⑤②口⑥ |⑤-⑥-|
⑦口口④ |⑦-⑧-|
30
①口口口 |①-②-|
③⑥口① |③-④-|
⑤口②⑧ |⑤-⑥-|
⑦口④口 |⑦-⑧-|
31
①口口口 |①-②-|
③口④口 |③-④-|
⑤口口⑧ |⑤-⑥-|
⑦⑥口② |⑦-⑧-|
32
①口②⑧ |①-②-|
③口口④ |③-④-|
⑤口口口 |⑤-⑥-|
⑦口⑥口 |⑦-⑧-|
33
口口口口 |--①-|
③②②③ |--②-|
④①①④ |--③-|
口口口口 |--④-|
34
②③口① |①-②③|
⑥⑤④口 |-④⑤⑥|
口⑩⑨⑬ |⑦⑧⑨⑩|
⑧⑫⑪⑦ |⑪⑫⑬-|
35
②④④③ |①---②-|
③口②① |--③---|
①⑥⑥口 |④---⑤-|
口⑤⑤口 |--⑥---|
36
②④④② |①---②-|
口⑤⑤③ |--③---|
①⑥⑥口 |④---⑤-|
③口口① |--⑥---|
37
③口③② |①---②-|
①口口口 |--③---|
口口口口
口②①口

口口口口
⑥口口⑥
④口口④ |④---⑤-|
⑤口口⑤ |--⑥---|
38
②①口② |①---②-|
口口口口 |--③---|
口口口③
口③①口

口⑥⑥口
口⑤⑤口
口④④口 |④---⑤-|
口口口口 |--⑥---|
39
①口⑧④ |①---②-|
③口⑤② |③-④---|
⑤口口口 |⑤---⑥-|
⑦口①⑥ |⑦-⑧---|
40
①口口口 |①---②-|
③口⑤② |③-④---|
⑤口⑥④ |⑤---⑥-|
⑦口①⑧ |⑦-⑧---|
41
①口口④ |①---②-|
③口⑤② |③-④---|
⑤口口⑧ |⑤---⑥-|
⑦口①⑥ |⑦-⑧---|
42
①⑤⑤口 |①---②-|
③④④口 |③-④---|
⑤②②口 |⑤---|
⑥①①口 |⑥---|
43
①⑤⑥① |①-②-|
口④口⑤ |③-④-|
⑦口③口 |⑤-⑥-|
口②⑧口 |⑦-⑧-|
44
⑤④口⑤ |①-②-|
①口⑥口 |③-④-|
口⑦③① |⑤-⑥-|
②口口⑧ |⑦-⑧-|
45
④⑦⑤口 |①-②-|
①⑤口① |③-④-|
口口⑥③ |⑤-⑥-|
口②口⑧ |⑦-⑧-|
46
⑤口口① |①-②-|
④口⑧③ |③-④-|
①⑦口⑤ |⑤-⑥-|
②口⑥口 |⑦-⑧-|
47
口③⑥口 |①-②-|
口口口口 |③-④-|
⑤口②⑧ |⑤-⑥-|
①⑦口④ |⑦-⑧-|
48
⑦口口口 |①-②-|
①口口④ |③-④-|
口③⑥口 |⑤-⑥-|
⑤口②⑧ |⑦-⑧-|
49
口⑦②⑥ |①②③④|
口①口④ |⑤⑥⑦⑧|
口⑤口口
口③⑧口

⑪口⑯口
⑨口⑭口
⑮口⑩⑫ |⑨⑩⑪⑫|
⑬口口口 |⑬⑭⑮⑯|
50
口口口口 |①---|
⑤①口⑥ |--②③|
口⑤⑥口 |④----⑤--|
口④③② |---⑥----|
51
口口④⑧ |①-②-|
口③⑥口 |③-④-|
⑦口口② |⑤-⑥-|
①⑤口口 |⑦-⑧-|
52
⑦①口口 |①-②-|
口口⑥④ |③-④-|
口⑤口⑧ |⑤-⑥-|
③口②口 |⑦-⑧-|
53
⑦③②口 |①-②-|
口⑤口⑧ |③-④-|
①口⑥口 |⑤-⑥-|
口口④口 |⑦-⑧-|
54
口⑦⑥口 |①-②-|
③口口口 |③-④-|
口⑤口② |⑤-⑥-|
口①④⑧ |⑦-⑧-|
55
口口口① |①---|
口口口口 |----|
口口口口 |----|
口口口口 |----|
56
⑩⑪⑥⑨ |①②③-|
④⑤⑫口 |④⑤⑥-|
⑦⑧③口 |⑦⑧-⑨|
①②口口 |⑩⑪⑫-|
57
口口③⑥ |①-②-|
⑧②口口 |③-④-|
⑤⑦⑥③ |⑤-⑥-|
①④口口 |⑦-⑧-|
58
口口④口 |①-②-|
口③口① |③-④-|
口口口④
②口口①

口口口⑥
口口⑥口
⑤口⑧口 |⑤-⑥-|
口⑦口⑧ |⑦-⑧-|
59
口②②口 |①---|
②④⑤② |②---|
口①口⑤ |③-④-|
③⑥口口 |⑤-⑥-|
60
④口口② |①-②-|
口口口口 |③-④-|
①③②口
口口口口

口⑥⑤口
⑥口口⑤
⑧口口⑦ |⑤-⑥-|
口⑧⑦口 |⑦-⑧-|
61
③口口⑤ |①-②-|
口⑥②⑧ |③-④-|
口③④口 |⑤-⑥-|
⑥口⑦① |⑦-⑧-|
62
⑥④口口 |①-②-|
①⑥③口 |③-④-|
④⑧口⑤ |⑤-⑥-|
⑧①⑦② |⑦-⑧-|
63
口②②口 |①---|
②⑤④② |②---|
⑤口①口 |③-④-|
口口⑥③ |⑤-⑥-|
64
②口口④ |①-②-|
口口口口 |③-④-|
口②③①
口口口口

口⑤⑥口
⑤口口⑥
⑦口口⑧ |⑤-⑥-|
口⑦⑧口 |⑦-⑧-|
65
①口④③ |①---②-|
⑥③②口 |--③---|
⑤②⑤⑥ |④---⑤-|
④口口① |--⑥---|
66
①②口④ |①---②-|
⑤口②⑥ |--③---|
口③口⑤ |④---⑤-|
④⑥③① |--⑥---|
67
①③④口 |①---②-|
口⑥③口 |--③---|
②⑤②⑥ |④---⑤-|
④口⑤① |--⑥---|
68
④②③① |①---②-|
口⑥⑤② |--③---|
口⑤⑥口 |④---⑤-|
③①口④ |--⑥---|
69
⑥③口④ |①---②-|
口⑥④③ |--③---|
①⑤⑤② |④---⑤-|
口②①口 |--⑥---|
70
口口①⑥ |①---②-|
①口⑤⑥ |--③---|
②④④③ |④---⑤-|
口③②⑤ |--⑥---|
71
口⑥口口 |①---②-|
④①⑥⑤ |--③---|
②⑤③② |④---⑤-|
③④①口 |--⑥---|
72
①口③① |①---②-|
④②口④ |--③---|
②④④③ |④---|
口口口口 |----|
73
③①③口 |①---②-|
口口口口 |--③---|
②口口③
口口②①

口⑥口④
⑥④⑤口
口口⑥口 |④---⑤-|
⑤口口口 |--⑥---|
74
②口②口 |①---②-|
⑤③④① |--③---|
①④⑥③ |④---⑤-|
⑥③⑤⑥ |--⑥---|
75
③口口③ |①---②-|
口②③① |--③---|
①口口②
口口口口

口⑥④口
④口口⑥
⑥⑤口口 |④---⑤-|
口口⑤口 |--⑥---|
76
②口口口 |①---②-|
③①③口 |--③---|
口口②①
口口口③

口⑥④口
口口口⑤
⑤⑥口⑥ |④---⑤-|
④④⑤口 |--⑥---|
77
①口口① |①---②-|
③①②口 |③-④---|
口口④口
口④口②

口⑧⑤⑧
口口口⑤
⑤口口⑥ |⑤---⑥-|
⑦口⑥口 |⑦-⑧---|
78
①口口口 |①---②-|
③④②④ |③-④---|
口①②口
口口口①

口口⑥⑥
口口口口
⑤口口⑤ |⑤---⑥-|
⑦⑧⑤⑧ |⑦-⑧---|
79
①口口口 |①---②-|
③④①② |③-④---|
口①②口
口口④口

口⑤⑥⑤
口口⑧口
⑤口口⑥ |⑤---⑥-|
⑦⑧口口 |⑦-⑧---|
80
①⑤口⑤ |①---②-|
③④口② |③-④---|
⑤①②口 |⑤---|
⑥口④① |⑥---|
81
口口口口 |①---|
口口口① |----|
口①①① |----|
口口口① |----|

不確定度: 0

最終更新:2022年03月02日 10:57