アットウィキロゴ

Element of SPADA (BEMANI SYMPHONY Arr.)
猫叉Master feat.霜月はるか × 大嶋 啓之 + gaQdan

EXTREME

Level: 9.1
BPM: 170
Notes: 767

1
口口口口 |----|
口口口口 |----|
口口口口 |----|
口口口口 |----|
2
口口口口 |①---|
口③②① |--②-|
口②口口 |----|
口①口口 |③---|
3
口口口④ |①---|
口口口③ |②-③-|
口口口② |④---|
口口①口
4
口口口口 |①---|
⑤④口口 |②-③-|
③②口口 |④-⑤-|
口口①口
5
口①口④ |①---|
口口口③ |②-③-|
口口口② |④---|
口口口口
6
口口口口 |①---|
②④口口 |②-③-|
③⑤口口 |④-⑤-|
口口①口
7
口口口④ |①---|
口口口③ |②-③-|
口口口② |④---|
口口①口
8
①口口口 |①---|
③②④⑤ |②-③-|
口口口口 |④-⑤-|
口口口口
9
口口口口 |①---|
③⑤口口 |②-③-|
②④口口 |④-⑤-|
口①①口
10
①口②口 |①-②③|
口口③⑦ |④-⑤-|
口⑥④⑤ |⑥-⑦-|
口口口口
11
④口口口 |①---|
③口口口 |②-③-|
②口口口 |④---|
口①①口
12
口口口口 |①---|
口口④⑤ |②-③-|
口口②③ |④-⑤-|
口①①口
13
④①①口 |①---|
③口口口 |②-③-|
②口口口 |④---|
口口口口
14
口口口口 |①---|
口口④② |②-③-|
口口⑤③ |④-⑤-|
口①①口
15
④口口口 |①---|
③口口口 |②-③-|
②口口口 |④---|
口①①口
16
口①口① |①---|
口②②③ |②-③-|
⑤④④口 |④-⑤-|
口口口口
17
口口口口 |①---|
口口⑤③ |②-③-|
口口④② |④-⑤-|
口①①口
18
①②⑥① |①-②③|
口③口口 |④-⑤-|
⑤④口口 |⑥---|
口口口口
19
口④口④ |①---|
口口③口 |②-③-|
口②口② |④---|
口①①口
20
口口口口 |①---|
⑤④④口 |②-③-|
③②②口 |④-⑤-|
口①①口
21
④①①④ |①---|
口口口口 |②-③-|
口②③② |④---|
口口口口
22
口口口口 |①---|
③②②口 |②-③-|
⑤④④口 |④-⑤-|
口①①口
23
口④口④ |①---|
口②口② |②-③-|
口口口③ |④---|
口①①口
24
①口①口 |①---|
③②②口 |②-③-|
口④④⑤ |④-⑤-|
口口口口
25
口口口口 |①---|
③④口④ |②-③-|
口⑤口口 |④-⑤-|
②①①②
26
①口②① |①-②③|
⑥口③⑦ |④-⑤-|
口口④⑤ |⑥-⑦-|
口口口口
27
④口④口 |①---|
口③口口 |②-③-|
②口②口 |④---|
口①①口
28
口口口口 |①---|
口④④⑤ |②-③-|
口②②③ |④-⑤-|
口①①口
29
④①①④ |①---|
口口口口 |②-③-|
②③②口 |④---|
口口口口
30
口口口口 |①---|
口②②③ |②-③-|
口④④⑤ |④-⑤-|
口①①口
31
④口④口 |①---|
②口②口 |②-③-|
③口口口 |④---|
口①①口
32
口①口① |①---|
口口②口 |--②-|
口口口口 |----|
口②口②
33
①口①口 |①---|
口①口④ |②-③-|
口口⑤② |④-⑤-|
口口③口
34
口口口口 |①---|
口口口② |----|
口口口③ |--②③|
口①口口
35
口口口口 |①---|
口口③口 |②---|
口②口口 |③---|
口口口①
36
口①口② |①---|
口③口口 |②---|
口口③口 |③---|
口口口口
37
口口口口 |①---|
③口③① |②---|
口口口口 |③---|
口②口口
38
口口口口 |①---|
口③口③ |②---|
口②口口 |③---|
口口①口
39
口口口口 |①---|
③口②口 |②-③④|
④口口口 |⑤---|
⑤①①口
40
口口口口 |①---|
口①③① |②---|
口③口口 |③---|
口口②口
41
①口①口 |①---|
口④⑤口 |②-③-|
②口③口 |④-⑤-|
口口口口
42
口①口① |①---|
口口口口 |②---|
口②口口 |③---|
口口③口
43
口口口口 |①---|
口口③口 |②---|
口②口口 |③---|
①口口①
44
口①口② |①---|
口③口口 |②---|
口口③口 |③---|
口口口口
45
口口口口 |①---|
③口③① |②---|
口口口口 |③---|
口②口口
46
口口口口 |①---|
口口口③ |②---|
口②口口 |③---|
口口①口
47
③口口口 |①---|
口③②口 |②---|
口口口口 |③---|
口①①口
48
口口①口 |①---|
口口口① |②---|
口口口口 |③---|
口③②③
49
口口口口 |①---|
①口口口 |②-③-|
口②③口 |④-⑤-|
口④⑤口
50
口④口⑤ |①---|
②口③口 |②-③-④-|
①口口① |⑤---|
口口口口
51
口口②口 |①---|
③④口口 |②-③-|
②⑤④口 |④-⑤-|
口①①口
52
④口口① |①---|
③口④口 |②-③-|
②口口② |④---|
口口口口
53
口口口④ |①---|
③④口口 |②-③-|
②⑤口② |④-⑤-|
口口①口
54
④口口口 |①---|
③口口口 |②-③-|
②口口④ |④---|
口口①口
55
⑤口①② |①---|
③口③口 |②-③④|
②口④口 |⑤---|
口口⑤口
56
口口⑤口 |①---|
④⑤口① |②③④-|
②⑥口③ |⑤-⑥-|
口口口口
57
口④口口 |①---|
③⑤口② |②-③-|
②口①口 |④-⑤-|
口口④口
58
⑥⑤①口 |①-②-|
④口口⑤ |③-④-|
③②③口 |⑤-⑥-|
口①口口
59
口口②口 |①---|
③④口口 |②-③-|
②⑤④口 |④-⑤-|
口①①口
60
④口口① |①---|
③口④口 |②-③-|
②口口② |④---|
口口口口
61
口口口④ |①---|
③④口口 |②-③-|
②⑤口② |④-⑤-|
口口①口
62
④口口口 |①---|
③口口口 |②-③-|
②口口口 |④---|
口口①④
63
④口口① |①---|
③口②口 |②-③-|
②口口④ |④---|
口口口口
64
口口口④ |①---|
③④②口 |②-③-|
②⑤口口 |④-⑤-|
口口①口
65
⑤④①口 |①---|
③口口口 |②-③-|
②口口口 |④-⑤-|
口口口口
66
口口口口 |①---|
口③③口 |②---|
②口口② |③---|
口①①口
67
口口口口 |①---|
口口③口 |②---|
口口口② |③---|
口口①口
68
口口口① |①---|
口③口② |②---|
口口口口 |③---|
口口口口
69
口口口口 |①---|
口口②口 |②---|
口③①口 |③---|
口口口口
70
口口口口 |①---|
口口口② |②---|
口口口口 |③---|
口口①③
71
③口口口 |①-②-|
②口④口 |③---|
①口口口 |④---|
口口口口
72
口口口口 |①---|
口②口口 |②---|
口①口口 |③---|
口③口口
73
口口口口 |①---|
口②口④ |②---|
口口①③ |③-④-|
口口口口
74
②口③① |①---|
④口⑤口 |②-③-|
口口口口 |④-⑤-|
口口口口
75
口③口口 |①-②-|
口②口④ |③---|
口①口口 |④---|
口口口口
76
口口口口 |①---|
口口口③ |②---|
口①口口 |③---|
口口口②
77
口口口口 |①---|
口口口口 |②---|
口口①口 |③---|
口②③口
78
口③口③ |①---|
口口②口 |②---|
口①口① |③---|
口口口口
79
口口口口 |①---|
②口③口 |②-③-|
④口⑤口 |④-⑤-|
口①①口
80
口口④口 |①---|
口②③口 |②--③|
口口口口 |④---|
①口口口
81
口口⑤口 |①-②-|
⑥口④口 |③--④|
③②①口 |⑤-⑥-|
口口口口
82
口口③口 |①---|
口②口② |②---|
②③①③ |③---|
口口口口
83
①①口口 |①---|
④口口口 |②-③-|
②⑤口口 |④-⑤-|
口③①①
84
①③口② |①---|
口②口③ |②---|
口口口口 |③---|
口口①口
85
①口①口 |①---|
④口口口 |②-③-|
②⑤口口 |④-⑤-|
口③口口
86
①②口② |①---|
口口④④ |②---|
口口口口 |③-④-|
口③①③
87
③口③口 |①-②-|
④口口口 |③---|
口⑤口② |④-⑤-|
口口①口
88
口②口② |①---|
口口③口 |②---|
口口②口 |③---|
口③①③
89
①口①口 |①-②-|
口口口⑤ |③-④-|
②③⑥③ |⑤-⑥-|
口口④口
90
口口②口 |①---|
口③口③ |②---|
口②口② |③---|
口①③口
91
口①④口 |①---|
口⑤②口 |②-③-|
①③①口 |④-⑤-|
口口口口
92
口口口口 |①---|
②口②口 |②---|
①③①③ |③-④-|
口②④口
93
①口口① |①---|
④口口口 |②-③-|
②⑤口口 |④-⑤-|
口③口口
94
③②口口 |①---|
口①③① |②---|
②口②口 |③---|
口口①③
95
口口口口 |①-②-|
⑤口口② |③-④-|
③⑥口① |⑤-⑥-|
口④口口
96
口③口③ |①---|
口口①口 |②---|
②口②口 |③---|
口口①口
97
口口口口 |①②③④|
①②③④ |⑤⑥⑦⑧|
⑤⑥⑦⑧ |⑨⑩⑪⑫|
⑨⑩⑪⑫
98
①口③① |①---|
口②口② |②---|
②③口③ |③---|
口口口口
99
①①口口 |①---|
④口口口 |②-③-|
②⑤口口 |④-⑤-|
口③①①
100
①③口② |①---|
口②口③ |②---|
口口口口 |③---|
口口①口
101
①口①口 |①---|
④口口口 |②-③-|
②⑤口口 |④-⑤-|
口③口口
102
①②口② |①---|
口口④④ |②---|
口口口口 |③-④-|
口③①③
103
③口③口 |①-②-|
④口口口 |③---|
口⑤口② |④-⑤-|
口口①口
104
口②口② |①---|
口口③口 |②---|
口口②口 |③---|
口③①③
105
①口①口 |①-②-|
口口口⑤ |③-④-|
②③⑥③ |⑤-⑥-|
口口④口
106
口口②口 |①---|
口③口③ |②---|
口②口② |③---|
口①③口
107
口①④口 |①---|
口⑤②口 |②-③-|
①③①口 |④-⑤-|
口口口口
108
口口口口 |①---|
②口②④ |②---|
①口①③ |③-④-|
口②口口
109
①口口① |①---|
④口口口 |②-③-|
②⑤口口 |④-⑤-|
口③口口
110
③②口口 |①---|
口①③① |②---|
②口②口 |③---|
口口①③
111
口口口口 |①-②-|
⑤口口② |③-④-|
③⑥口① |⑤-⑥-|
口④口口
112
②③②③ |①---|
口口①口 |②---|
②口③口 |③---|
口口①口
113
⑥口③口 |①-②-|
口④①口 |③-④-|
⑤②口口 |⑤-⑥-|
口口口口
114
口口口② |①---|
①口①口 |②---|
口口口口 |③---|
口口③③
115
①口①口 |①---|
④口口口 |②-③-|
②⑤①口 |④-⑤-|
口③口口
116
②①①口 |①---|
口②口④ |②---|
口口②③ |③-④-|
口口口口
117
口口口① |①---|
④口④口 |②-③-|
②⑤②口 |④-⑤-|
口③口口
118
②③②口 |①---|
③②③口 |②---|
口口口口 |③---|
①口①口
119
③口口① |①--②|
④口口口 |--③-|
口⑤②口 |④-⑤-|
①口口③
120
③口②③ |①---|
口口口口 |②---|
②口③② |③---|
口口①口
121
口⑥③口 |①-②-|
口④①口 |③-④-|
⑤②口口 |⑤-⑥-|
口口口口
122
口口口口 |①---|
①口口口 |②-③-|
④②④② |④-⑤-|
口口⑤③
123
④①口口 |①---|
①③①口 |(168)②-③-|
口②口口 |(168)④---|
口口口口
124
口③④② |(165)①---|
口口口口 |(162)②---|
口口①口 |(161)③-④-|
口口口口
125
①口口口 |(158)①---|
①口③口 |(155)②---|
口②口口 |(154)③---|
口口口口
126
口①②③ |(149)①---|
口②口口 |(145)②---|
口③口口 |(123)③---|
口口口口
127
口口口口 |①-②-|
口②①③ |③---|
口口④口 |④---|
口口口口
128
口口口口 |①---|
口②①口 |②---|
口③口口 |③---|
口口口口
129
口口口口 |(119)①---|
口③②口 |(111)②---|
口口①口 |(103)③---|
口口口口
130
①②③口 |(99)①---|
口口口口 |(98)②---|
口口口口 |(97)③---|
口口口口

不確定度: 0

最終更新:2022年03月03日 20:19