アットウィキロゴ

IN THE NAME OF LOVE
Y& Co. feat. Erica

EXTREME

Level: 9
BPM: 155
Notes: 762

1
口口口口 |----|
口口口口 |----|
口口口口 |----|
口口口口 |----|
2
②①①③ |①---|
④②③⑤ |②-③-|
口④⑤口 |④-⑤-|
口⑥⑥口 |--⑥-|
3
③口口③ |----|
②③③② |①---|
①②②① |②-③-|
①口口① |----|
4
口口口口 |①---|
口口口口 |②---|
②口口②
口①①口

④口口④
③口口③
口口口口 |③---|
口⑤⑤口 |④-⑤-|
5
口③③口 |--①-|
④②②④ |--②-|
口①①口 |--③-|
口口口口 |④---|
6
①口口② |----|
③①②④ |①-②-|
口③④口 |③-④-|
口⑤⑤口 |--⑤-|
7
③口口③ |----|
②③③② |①---|
①②②① |②-③-|
①口口① |----|
8
口口口口 |①-②-|
口口口口 |③-④-|
⑥⑦③② |⑤-⑥-|
⑤⑧④① |⑦-⑧-|
9
口①①③ |①---|
口①①② |----|
口口口口 |-②③-|
④⑤口口 |④-⑤-|
10
⑦②口⑧ |①-②③|
⑨⑥③⑩ |④-⑤⑥|
⑪④⑤⑫ |-⑦⑧⑨|
口⑬①口 |⑩⑪⑫⑬|
11
⑦③口⑦ |①②③-|
⑧⑥②⑧ |④-⑤⑥|
⑨①⑤⑨ |-⑦-⑧|
④口⑩④ |-⑨-⑩|
12
口④口口 |①-②③|
⑫⑤③⑪ |④-⑤⑥|
⑩②⑥⑨ |-⑦⑧⑨|
⑧①口⑦ |⑩⑪⑫-|
13
口①口口 |①②③-|
口⑥②口 |④-⑤⑥|
口③⑤口
口④④口

⑦⑩口⑦
⑧口口⑧
⑨口口⑨ |-⑦-⑧|
口口口口 |-⑨-⑩|
14
⑦口①⑧ |①-②③|
⑨口②⑩ |④-⑤⑥|
⑪③⑤⑫ |-⑦⑧⑨|
⑬⑥④口 |⑩⑪⑫⑬|
15
口④④口 |①②③-|
口⑤③口 |④-⑤⑥|
口②⑥口
口口①①

⑦口口⑦
⑧口口⑧
⑨口口⑨ |-⑦-⑧|
口口⑩口 |-⑨-⑩|
16
⑦口②⑧ |①-②③|
⑨③⑥⑩ |④-⑤⑥|
口⑤④口 |--⑦⑧|
口①口口 |-⑨⑩-|
17
⑨④④⑩ |①②③-|
口③⑤口 |④-⑤⑥|
⑧⑥②⑧ |-⑦-⑧|
⑦①口⑦ |-⑨⑩-|
18
口口口口 |①-②-|
口①②口 |③-④-|
口④④口
口③③口

⑥口口⑥
⑤⑧⑧⑤
⑦口口⑦ |⑤-⑥-|
口口口口 |⑦-⑧-|
19
口③③口 |①-②-|
④⑦⑧④ |③-④-|
⑤口口⑥ |⑤-⑥-|
⑤①②⑥ |⑦-⑧-|
20
⑥①②⑥ |①-②-|
⑤⑧⑧⑤ |③-④-|
⑦④④⑦ |⑤-⑥-|
口③③口 |⑦-⑧-|
21
口③③口 |①-②-|
口口口口 |③---|
⑤口口④ |④-⑤-|
⑤②①④ |----|
22
①②口④ |①-②-|
①②口④ |③-④-|
口口口③
口口口口

口⑧⑥口
口⑧⑥口
口⑦⑤口 |⑤-⑥-|
口口口口 |⑦-⑧-|
23
口口口口 |--①-|
②口④⑥ |②-③-|
⑦⑦③③ |④-⑤-|
⑤⑤①① |⑥-⑦-|
24
④④③① |①-②-|
②②口口 |③-④-|
口口口口
口口口口

口口口口
口⑤口口
口口口口 |----|
⑤口口口 |--⑤-|
25
⑤③④⑤ |--①-|
口口①口 |②---|
③②②④ |③-④-|
口口口① |--⑤-|
26
口⑥⑤口 |----|
口④②口 |①-②-|
口口口口 |③-④-|
③③①① |⑤-⑥-|
27
⑤口口⑤ |①---|
①④④② |②---|
①③③② |③-④-|
口口口口 |--⑤-|
28
口⑤④③ |----|
①口②口 |①---|
①口②口 |②-③-|
①①②② |④-⑤-|
29
口口⑤④ |①-②-|
口口⑤④ |③-④-|
③③口② |--⑤-|
①①口口 |----|
30
①③⑤口 |----|
①③⑤口 |①-②-|
②④⑥口 |③-④-|
口口口口 |⑤-⑥-|
31
口口口口 |①-②-|
口口口⑤ |③-④-|
④口口③ |⑤---|
②口口① |----|
32
①⑤⑤① |①---|
②①①② |②---|
④②②④ |③-④-|
③口口③ |--⑤-|
33
口口口口 |----|
口口口口 |----|
②口口② |----|
口①①口 |①-②-|
34
④⑤⑤④ |①-②-|
③①①③ |③-④-|
口②②口 |--⑤-|
口⑥⑥口 |--⑥-|
35
③口口③ |--①-|
②②②② |②---|
①①①① |③---|
口口口口 |----|
36
④⑤⑤④ |①-②-|
口①②口 |③-④-|
③①②③ |--⑤-|
口⑥⑥口 |--⑥-|
37
③口口③ |--①-|
②②②② |②---|
①①①① |③---|
口口口口 |----|
38
⑤口口⑤ |①-②-|
⑥④④⑥ |③-④-|
②③③② |--⑤-|
①口口① |⑥---|
39
口口口口 |①-②-|
口口口口 |--③-|
①②口③ |----|
①②口③ |----|
40
口口②① |①-②-|
⑥⑥②① |--③-|
③③⑤⑤ |--④-|
口口④④ |⑤-⑥-|
41
①①口口 |①-②-|
口口②口 |--③-|
⑤③口⑤ |----|
口④④口 |④-⑤-|
42
④⑤⑤④ |①-②-|
③①①③ |③-④-|
口②②口 |--⑤-|
口⑥⑥口 |--⑥-|
43
③口口③ |--①-|
②②②② |②---|
①①①① |③---|
口口口口 |----|
44
④⑤⑤④ |①-②-|
口①②口 |③-④-|
③①②③ |--⑤-|
口⑥⑥口 |--⑥-|
45
③口口③ |--①-|
②②②② |②---|
①①①① |③---|
口口口口 |----|
46
④口口④ |①-②-|
⑤③③⑤ |--③-|
②口口② |--④-|
①口口① |⑤---|
47
口口口口 |①-②-|
口口口口 |--③-|
①②口③ |----|
①②口③ |----|
48
①①口口 |----|
②②①① |①-②-|
③③②② |③---|
口口③③ |----|
49
口口②① |①-②-|
口③③口 |--③-|
口③③口
①②口口

口口口口
④口口⑤
⑥口口⑦ |--④⑤|
⑧口口⑨ |⑥⑦⑧⑨|
50
口②口口 |①-②③|
口⑥③口 |④-⑤⑥|
口④⑤口
口①①口

⑦口口⑧
⑨口口⑩
⑪口口⑫ |-⑦⑧⑨|
口⑬口口 |⑩⑪⑫⑬|
51
⑦③口⑦ |①②③-|
⑧⑥②⑧ |④-⑤⑥|
⑨①⑤⑨ |-⑦-⑧|
④口⑩④ |-⑨-⑩|
52
口④口口 |①-②③|
⑫⑤③⑪ |④-⑤⑥|
⑩②⑥⑨ |-⑦⑧⑨|
⑧①口⑦ |⑩⑪⑫-|
53
口①口口 |①②③-|
口⑥②口 |④-⑤⑥|
口③⑤口
口④④口

⑦⑩口⑦
⑧口口⑧
⑨口口⑨ |-⑦-⑧|
口口口口 |-⑨-⑩|
54
⑦口①⑧ |①-②③|
⑨口②⑩ |④-⑤⑥|
⑪③⑤⑫ |-⑦⑧⑨|
⑬⑥④口 |⑩⑪⑫⑬|
55
口④④口 |①②③-|
口⑤③口 |④-⑤⑥|
口②⑥口
口口①①

⑦口口⑦
⑧口口⑧
⑨口口⑨ |-⑦-⑧|
口口⑩口 |-⑨-⑩|
56
⑦口②⑧ |①-②③|
⑨③⑥⑩ |④-⑤⑥|
口⑤④口 |--⑦⑧|
口①口口 |-⑨⑩-|
57
⑨④④⑩ |①②③-|
⑪③⑤口 |④-⑤⑥|
⑧⑥②⑧ |-⑦-⑧|
⑦①口⑦ |-⑨⑩⑪|
58
口②口口 |①-②③|
口⑥③口 |④-⑤⑥|
口④⑤口
口①①口

⑦口口⑧
⑨口口⑩
⑪口口⑫ |-⑦⑧⑨|
口⑬口口 |⑩⑪⑫⑬|
59
⑤①①⑤ |①-②-|
口④④口 |③-④⑤|
口②②口
③口口③

口口口口
⑧口口⑧
⑥⑩⑩⑦ |-⑥-⑦|
口⑨⑨口 |⑧-⑨⑩|
60
⑤①①⑥ |①-②③|
⑨④口⑩ |④-⑤⑥|
⑦⑬⑭⑧ |⑦⑧⑨⑩|
②⑪⑫③ |⑪⑫⑬⑭|
61
口①②口 |①②③-|
口④④口 |④-⑤⑥|
⑤口口⑥
③口口③

⑪⑩⑩⑪
⑦口口⑦
口⑨⑨口 |-⑦--|
口⑧⑧口 |⑧⑨⑩⑪|
62
口口口口 |①-②③|
⑤①①⑥ |④-⑤⑥|
口口口④
③口口②

口口⑪口
口⑫⑩口
⑦⑨⑬口 |⑦-⑧⑨|
口口⑧口 |⑩⑪⑫⑬|
63
②口口② |①-②-|
③口口③ |③-④⑤|
口口口口
④①口⑤

⑨口口⑨
口口⑧口
口口⑦口 |-⑥-⑦|
口口⑥口 |-⑧-⑨|
64
⑨②②⑩ |①-②③|
①③口① |④-⑤⑥|
⑧④⑥⑧ |-⑦⑧-|
口⑤⑤⑦ |-⑨⑩-|
65
口①②口 |①②③④|
口③④口 |⑤-⑥⑦|
口⑤口口
口⑦⑥口

⑩⑫⑫⑪
口口口口
⑨口口⑨ |-⑧-⑨|
⑧口口⑧ |-⑩⑪⑫|
66
口口口口 |①-②-|
④①①④ |--③-|
⑤②②⑤ |④-⑤-|
⑥③③⑥ |--⑥-|
67
④③③④ |①-②-|
④②②④ |--③-|
④①①④ |--④-|
口口口口 |----|


不确定度: 0

最終更新:2012年11月11日 17:37