アットウィキロゴ

Polaris
Mutsuhiko Izumi

EXTREME

Level: 8
BPM: 180
Notes: 577

1
口口口口 |----|
口口口口 |----|
口口口口 |----|
口口口口 |----|
2
口①②口 |①---|
①口口② |②---|
口④⑤口 |③-④-|
口③口口 |--⑤-|
3
⑥③口⑥ |①---|
⑤②①⑤ |②-③-|
④口口④ |--④-|
口口口口 |⑤-⑥-|
4
口口口口 |①---|
口口口口 |②---|
口④⑤口 |③-④-|
①③口② |--⑤-|
5
②④⑥⑧ |①---|
③⑤⑦⑨ |----|
口口口口 |②③④⑤|
口口①口 |⑥⑦⑧⑨|
6
口口口口 |①---|
口口口口 |②---|
①④⑤② |③-④-|
①③口② |--⑤-|
7
⑥③口⑥ |①---|
⑤②①⑤ |②-③-|
④口口④ |--④-|
口口口口 |⑤-⑥-|
8
口⑤⑤口 |①---|
口口口口 |②---|
口④④口 |③-④-|
①③③② |--⑤-|
9
①口口① |①---|
口②②口 |②---|
③口口③ |③---|
口④④口 |④---|
10
②③④⑤ |①---|
①口口① |----|
口①①口 |②-③-|
①口口① |④-⑤-|
11
口口口口 |①---|
④③②口 |--②-|
口口口① |③-④-|
④③②口 |----|
12
④③②① |----|
口口口口 |----|
口口口口 |①-②-|
口口口口 |③-④-|
13
口口口口 |①---|
①口②口 |--②-|
口口口口 |----|
①口②口 |----|
14
②③④⑤ |①---|
①口口① |----|
口①①口 |②-③-|
①口口① |④-⑤-|
15
口口口口 |①---|
口口口口 |----|
口口口① |②-③-|
⑤④③② |④-⑤-|
16
口口②③ |①---|
①口口口 |--②-|
口口②③ |③---|
口口口口 |----|
17
①口口① |----|
口①①口 |----|
②口口② |①---|
口②②口 |②---|
18
②③④⑤ |①---|
①口口① |----|
口①①口 |②-③-|
①口口① |④-⑤-|
19
②③④口 |①---|
口口口口 |----|
口口口① |--②-|
口口口口 |③-④-|
20
口口口① |①---|
口③口② |--②-|
口口口口 |----|
口③口② |--③-|
21
口口口口 |①---|
①口口口 |--②-|
②口口口
①口口口

口口口口
③④④③
口口口口 |----|
口口口口 |--③④|
22
口口口口 |①---|
口口口口 |--②-|
③①①③ |----|
②②②② |③---|
23
②③③② |①---|
①①①① |----|
口口口口 |----|
口口口口 |--②③|
24
口口口口 |①---|
口①①口 |----|
口口口口 |----|
口口口口 |----|
25
口③④口 |①---|
口⑤⑥口 |②---|
②⑦⑧① |③④⑤⑥|
口②①口 |⑦⑧--|
26
①口口① |①---|
④口口口 |----|
口口口③ |--②-|
②口口口 |③-④-|
27
口口口① |①---|
口④口口 |----|
口口③口 |--②-|
口②口口 |③-④-|
28
口口①口 |①---|
口口口口 |----|
口口口口 |----|
口口口口 |----|
29
口口口口 |①---|
①②①② |--②-|
②①②① |----|
口口口口 |----|
30
④③口口 |①---|
①②口口 |----|
口口②① |--②-|
口口③④ |③-④-|
31
口②②口 |①---|
①③③口 |----|
口口口① |----|
口口口口 |②-③-|
32
⑧口口⑦ |①-②-|
⑥口口⑤ |③-④-|
④①①③ |⑤-⑥-|
②口口口 |⑦-⑧-|
33
⑮①②⑯ |①②③④|
⑬③④⑭ |⑤⑥⑦⑧|
⑪⑤⑥⑫ |⑨⑩⑪⑫|
⑨⑦⑧⑩ |⑬⑭⑮⑯|
34
口①①口 |①---|
②口④口 |----|
口③口口 |--②-|
口口口口 |③-④-|
35
②口④口 |①---|
口口口口 |----|
口口口① |--②-|
口③口口 |③-④-|
36
口口口口 |①---|
口口口口 |----|
口口口口 |----|
口口口① |----|
37
口口口口 |①---|
①②①② |--②-|
②①②① |----|
口口口口 |----|
38
②①口口 |①---|
口③④口 |----|
口④③口 |--②-|
口口①② |③-④-|
39
口口口① |①---|
④口口④ |----|
③口口③ |--②-|
①②②口 |③-④-|
40
口①①口 |①---|
口口口口 |----|
口口口口
口口口口

②③③②
口口口口
口口口口 |----|
口口口口 |--②③|
41
口口口口 |①---|
口①①口 |----|
口口口口
口口口口

口口口口
②③③②
口口口口 |----|
口口口口 |--②③|
42
口口口口 |①---|
口口口口 |----|
口①①口
口口口口

口口口口
口口口口
②③③② |----|
口口口口 |--②③|
43
②②②② |①---|
口②②口 |--②-|
口口口口 |----|
口①①口 |----|
44
③口口口 |①---|
口口口① |----|
口口口② |②---|
口口口口 |--③-|
45
口口⑦口 |①-②-|
②口①口 |③-④-|
④口③口 |⑤-⑥-|
⑥口⑤口 |--⑦-|
46
口口口④ |----|
口③口⑤ |--①-|
口口口② |②-③-|
口①口口 |④-⑤-|
47
①口口口 |①---②-|
②口④⑤ |--③---|
③口口口 |④---|
口口口口 |⑤---|
48
口⑤③口 |①---|
口口口④ |②---|
口①口口 |③-④-|
②口口口 |--⑤-|
49
口口口口 |①-②-|
口③①口 |--③-|
口⑥④② |④-⑤-|
口口口⑤ |--⑥-|
50
口口口口 |①---|
口口口口 |②---|
口口口口 |----|
口②①口 |----|
51
①②⑨⑩ |①②③④|
③④⑪⑫ |⑤⑥⑦⑧|
⑤⑥⑬⑭ |⑨⑩⑪⑫|
⑦⑧⑮⑯ |⑬⑭⑮⑯|
52
①①口口 |①---|
口③口口 |----|
口②口④ |②-③-|
口口口口 |--④-|
53
口口③口 |①---|
口口②口 |②---|
口口①口 |③---|
口④⑤口 |④-⑤-|
54
口口口口 |①-②-|
口⑤④③ |--③-|
口⑥口② |④-⑤-|
口口口① |--⑥-|
55
②口口④ |①-②-|
①口口③ |③-④-|
口口口口 |----|
口口口口 |----|
56
①②口口 |①②③④|
③④⑩口 |⑤---|
⑤口⑧⑨ |⑥⑦⑧⑨|
口口⑥⑦ |⑩---|
57
⑦⑧⑮⑯ |①②③④|
⑤⑥⑬⑭ |⑤⑥⑦⑧|
③④⑪⑫ |⑨⑩⑪⑫|
①②⑨⑩ |⑬⑭⑮⑯|
58
⑤⑥⑬⑭ |①②③④|
⑦⑧⑮⑯ |⑤⑥⑦⑧|
①②⑨⑩ |⑨⑩⑪⑫|
③④⑪⑫ |⑬⑭⑮⑯|
59
口⑥口口 |①---②-|
③⑤口口 |--③---|
②④口口 |④---⑤-|
①口口口 |--⑥---|
60
口口②② |①---|
口口口④ |②---|
口口⑤③ |③-④-|
①①口口 |--⑤-|
61
⑥口口口 |①---|
⑤③①口 |②-③-|
④②口口 |--④-|
口口口口 |⑤-⑥-|
62
⑦口①口 |①-②-|
口口⑥② |③-④-|
口口⑤③ |--⑤-|
口口④口 |⑥-⑦-|
63
口口②① |--①-|
口④口③ |②-③-|
⑥口⑤口 |④-⑤-|
口⑦口口 |⑥-⑦-|
64
②②口口 |①---|
口④口口 |②---|
口③⑤口 |③-④-|
口口①① |--⑤-|
65
口口口口 |①---|
口口①③ |②-③-|
口口口② |--④-|
④⑤⑥口 |⑤-⑥-|
66
①口口口 |①-②-|
③②口口 |③-④-|
口④口口 |----|
口口口口 |----|
67
口口口① |①-②-|
口口②③ |③-④-|
口口④口 |----|
口口口口 |----|
68
口口②② |①---|
口口③④ |②---|
口口口⑤ |③-④-|
①①口口 |--⑤-|
69
⑦⑧⑨⑩ |①②③④|
⑤⑥⑪⑫ |⑤⑥⑦⑧|
③④⑬⑭ |⑨⑩⑪⑫|
①②⑮⑯ |⑬⑭⑮⑯|
70
①②②① |----|
口口口口 |----|
口口口口 |----|
口口口口 |--①②|
71
口口口口 |①---|
口①①口 |----|
口口口口
口口口口

口口口口
②③③②
口口口口 |----|
口口口口 |--②③|
72
口口口口 |①---|
口口口口 |----|
口①①口
口口口口

口口口口
口口口口
②③③② |----|
口口口口 |--②③|
73
②②②② |①---|
口②②口 |--②-|
口口口口 |----|
口①①口 |----|
74
口口口口 |①---|
口口⑤⑤ |②---|
口④口口 |③-④-|
③②①① |--⑤-|
75
③③②口 |①---|
①①口口 |②-③-|
⑥⑤④口 |--④-|
口口口口 |⑤-⑥-|
76
口口口口 |①---|
口口⑤⑤ |②---|
口④口口 |③-④-|
③②①① |--⑤-|
77
②③⑥⑦ |①---|
①①口口 |----|
④⑤⑧⑨ |②③④⑤|
口口口口 |⑥⑦⑧⑨|
78
口口口口 |①---|
口口⑤⑤ |②---|
口④口口 |③-④-|
③②①① |--⑤-|
79
③③②口 |①---|
①①口口 |②-③-|
④⑤⑥口 |--④-|
口口口口 |⑤-⑥-|
80
③⑤口口 |①---|
④⑥⑧⑧ |②---|
⑦口口口 |③④⑤⑥|
口②①① |⑦-⑧-|
81
口口①① |①---|
口口口口 |--②-|
口口口口 |----|
②②②② |----|
82
口口口口 |----|
口口口口 |----|
口口口口 |----|
口口口口 |----|
83
①①①① |①-②-|
③③③③ |③-④-|
②②②② |----|
④④④④ |----|


不确定度: 0

最終更新:2012年11月11日 17:40