アットウィキロゴ

防衛本脳
Daisy×Daisy

EXTREME

Level: 9
BPM: 170
Notes: 844

1
口口口口 |----|
口口口口 |----|
口口口口 |----|
口口口口 |----|
2
③⑤⑥④ |①-②-|
⑦①②⑧ |③-④-|
⑧②①⑦ |⑤-⑥-|
④⑥⑤③ |⑦-⑧-|
3
③⑦⑦② |①-②-|
⑤①④⑥ |③-④-|
⑥④①⑤ |⑤-⑥-|
②口口③ |⑦---|
4
③⑤⑥④ |①-②-|
⑦①②⑧ |③-④-|
⑧②①⑦ |⑤-⑥-|
④⑥⑤③ |⑦-⑧-|
5
③⑦⑦② |①-②-|
⑤①④⑥ |③-④-|
⑥④①⑤ |⑤-⑥-|
②口口③ |⑦---|
6
③⑤⑥④ |①-②-|
⑦①②⑧ |③-④-|
⑧②①⑦ |⑤-⑥-|
④⑥⑤③ |⑦-⑧-|
7
③⑦⑦② |①-②-|
⑤①④⑥ |③-④-|
⑥④①⑤ |⑤-⑥-|
②口口③ |⑦---|
8
③⑤⑥④ |①-②-|
⑦①②⑧ |③-④-|
⑧②①⑦ |⑤-⑥-|
④⑥⑤③ |⑦-⑧-|
9
③口口② |①-②-|
口①④口 |③-④-|
口④①口
②口口③

口口口口
⑤⑦口⑥
⑥口⑦⑤ |⑤-⑥-|
口口口口 |⑦---|
10
⑤①⑧⑥ |①-②-|
③⑦②④ |③-④-|
④②⑦③ |⑤-⑥-|
⑥⑧①⑤ |⑦-⑧-|
11
⑦口口口 |①-②-|
①⑦②④ |③-④-|
⑤③口① |⑤-⑥-|
口口口⑥ |⑦---|
12
⑤①⑧⑥ |①-②-|
③⑦②④ |③-④-|
④②⑦③ |⑤-⑥-|
⑥⑧①⑤ |⑦-⑧-|
13
⑦口口口 |①-②-|
①⑦②④ |③-④-|
⑤③口① |⑤-⑥-|
口口口⑥ |⑦---|
14
⑤①⑧⑥ |①-②-|
③⑦②④ |③-④-|
④②⑦③ |⑤-⑥-|
⑥⑧①⑤ |⑦-⑧-|
15
⑦口口口 |①-②-|
①⑦②④ |③-④-|
⑤③口① |⑤-⑥-|
口口口⑥ |⑦---|
16
⑤①⑧⑥ |①-②-|
③⑦②④ |③-④-|
④②⑦③ |⑤-⑥-|
⑥⑧①⑤ |⑦-⑧-|
17
⑦口口口 |①-②-|
①⑦②④ |③-④-|
⑤③口① |⑤-⑥-|
口口口⑥ |⑦---|
18
口口口④ |----|
口口⑤① |①-②-|
口口口② |③---|
口口口③ |④-⑤-|
19
口③口④ |--①-|
口口④口 |--②-|
②口口③ |----|
①②口口 |③-④-|
20
④口口口 |----|
①⑤口口 |①-②-|
②口口口 |③---|
③口口口 |④-⑤-|
21
⑤口④口 |--①-|
口⑤口③ |②-③-|
④口口② |----|
口③②① |④-⑤-|
22
口口口④ |----|
口口⑤① |①-②-|
口口口② |③---|
口口口③ |④-⑤-|
23
口③口④ |--①-|
口口④口 |--②-|
②口口③ |----|
①②口口 |③-④-|
24
④口口口 |----|
①⑤口口 |①-②-|
②口口口 |③---|
③口口口 |④-⑤-|
25
口口口④ |--①-|
口⑤口③ |②-③-|
口口⑤② |④---|
④③②① |⑤---|
26
⑤①⑧⑥ |①-②-|
③⑦②④ |③-④-|
④②⑦③ |⑤-⑥-|
⑥⑧①⑤ |⑦-⑧-|
27
⑦口口口 |①-②-|
①⑦②④ |③-④-|
⑤③口① |⑤-⑥-|
口口口⑥ |⑦---|
28
⑤①⑧⑥ |①-②-|
③⑦②④ |③-④-|
④②⑦③ |⑤-⑥-|
⑥⑧①⑤ |⑦-⑧-|
29
⑦口口口 |①-②-|
①⑦②④ |③-④-|
⑤③口① |⑤-⑥-|
口口口⑥ |⑦---|
30
⑤①⑧⑥ |①-②-|
③⑦②④ |③-④-|
④②⑦③ |⑤-⑥-|
⑥⑧①⑤ |⑦-⑧-|
31
⑦口口口 |①-②-|
①⑦②④ |③-④-|
⑤③口① |⑤-⑥-|
口口口⑥ |⑦---|
32
⑤①⑧⑥ |①-②-|
③⑦②④ |③-④-|
④②⑦③ |⑤-⑥-|
⑥⑧①⑤ |⑦-⑧-|
33
⑦口口口 |①-②-|
①⑦②④ |③-④-|
⑤③口① |⑤-⑥-|
口口口⑥ |⑦---|
34
口⑤⑥口 |----|
口④①口 |①-②-|
口③②口 |③-④-|
口口口口 |⑤-⑥-|
35
⑤口口⑤ |--①-|
①口口① |--②-|
④②②④ |--③-|
③口口③ |④-⑤-|
36
口⑥⑤口 |----|
口①④口 |①-②-|
口②③口 |③-④-|
口口口口 |⑤-⑥-|
37
⑤口口⑤ |--①-|
①④④① |②-③-|
口②②口 |----|
③口口③ |④-⑤-|
38
口口口口 |----|
口口口口 |①-②-|
口⑤⑥口 |③-④-|
③①②④ |⑤-⑥-|
39
②口口② |--①-|
①口口① |--②-|
口口口口
口口口口

口口口口
④口口④
口③③口 |----|
口口口口 |③-④-|
40
口口口口 |----|
口①④口 |①-②-|
②口口⑤ |③-④-|
口③⑥口 |⑤-⑥-|
41
口②③口 |--①-|
①口口④ |②-③-|
口⑤⑤口 |④---|
口口口口 |⑤---|
42
②口口口 |①---|
②②口口 |----|
②②口口 |②---|
口①①口 |----|
43
②②口口 |①---|
②口口口 |----|
②②①① |②---|
②②①① |----|
44
口口口① |①---|
②口口① |----|
②②口① |----|
②口口① |②---|
45
口②②② |①---|
口②①② |--②-|
口口①口 |----|
口口①口 |----|
46
口口口口 |①---|
②口①口 |----|
②口①口 |②---|
口②口口 |----|
47
口口①① |①---|
口口①口 |----|
口口口② |②---|
口口②② |----|
48
③②②④ |①---|
③①①④ |②---|
④①①③ |③---|
④②②③ |④---|
49
③①口口 |①---|
口①②口 |--②-|
口②①口 |③---|
口口①③ |----|
50
口口口① |①-②-|
④②③口 |③-④-|
口③②④
①口口口

口⑤⑥⑧
口口口⑦
⑦口口口 |⑤-⑥-|
⑧⑥⑤口 |⑦-⑧-|
51
①口口口 |①---|
口②口口 |②---|
口口②口
口口口①

④口口口
口口③口
口③口口 |③---|
口口口④ |④---|
52
⑥④口① |①-②-|
④⑦③⑤ |③-④-|
⑥③口② |⑤---|
①⑦②⑤ |⑥-⑦-|
53
口⑤①③ |①-②-|
②⑥口④ |--③-|
口⑥①④ |④---|
②⑤口③ |⑤-⑥-|
54
①⑤口⑥ |①-②-|
③口②④ |③-④-|
③口②⑥ |⑤---|
①⑤口④ |⑥---|
55
⑥⑥④口 |①---|
③②①⑤ |②-③-|
③②④口 |④-⑤-|
口口①⑤ |--⑥-|
56
口④④口 |①---|
口口②③ |②-③-|
口口②③ |--④-|
①①口口 |----|
57
口口⑥口 |①---|
口⑤④⑥ |②-③-|
⑤①①④ |④-⑤-|
②③③② |⑥---|
58
②①口⑦ |①-②-|
①⑥口口 |③-④-|
口⑧③④ |⑤-⑥-|
口口④⑤ |⑦-⑧-|
59
④口①口 |①-②-|
口口③① |③-④-|
口口口③
②口口口

口口⑧口
口⑤口⑧
口⑦⑤口 |⑤-⑥-|
口口口⑥ |⑦-⑧-|
60
⑥②口④ |①-②-|
口⑦⑦口 |③-④-|
①⑧⑧③ |⑤-⑥-|
口①口⑤ |⑦-⑧-|
61
口②②口 |①-②-|
④⑤⑤④ |③-④-|
⑦⑥⑥⑦ |⑤-⑥-|
③①①③ |⑦---|
62
①口口① |①---|
④③③④ |②-③-|
口口口口 |----|
②口口② |④---|
63
③口口③ |①---|
⑤②②口 |②-③-|
口口④⑤ |④---|
⑥①①④ |⑤-⑥-|
64
口口③口 |①---|
口④④② |②-③-|
口①口口 |--④-|
口口口口 |----|
65
口口口口 |①---|
③④③④ |②-③-|
⑤②⑤② |--④-|
口①①口 |⑤---|
66
②口①① |①---|
②③口口 |----|
②③口口 |②---|
②口①① |③---|
67
口③③② |①---|
口口①② |②---|
口口①② |③---|
口④④② |④---|
68
②口口口 |①---|
口①①口 |--②-|
口①①口
口口口②

口口口③
⑤口④口
口④口⑤ |③---|
③口口口 |④-⑤-|
69
口口口口 |①---|
口④④① |②---|
①③③口 |③---|
口②②口 |④---|
70
口②①① |①---|
②口口口 |----|
③口口口 |②---|
口③①① |③---|
71
口口②口 |①---|
口③口② |----|
口口③① |②---|
口口①口 |③---|
72
口口口口 |①---|
口口口口 |----|
①口口口
口①口口

口口口口
口②②口
口口口口 |②---|
口③③口 |③---|
73
口②②口 |①---|
③④口① |②---|
③口④① |③---|
口口口口 |④---|
74
⑤①⑧⑥ |①-②-|
③⑦②④ |③-④-|
④②⑦③ |⑤-⑥-|
⑥⑧①⑤ |⑦-⑧-|
75
⑦口口口 |①-②-|
①⑦②④ |③-④-|
⑤③口① |⑤-⑥-|
口口口⑥ |⑦---|
76
⑤①⑧⑥ |①-②-|
③⑦②④ |③-④-|
④②⑦③ |⑤-⑥-|
⑥⑧①⑤ |⑦-⑧-|
77
⑦口口口 |①-②-|
①⑦②④ |③-④-|
⑤③口① |⑤-⑥-|
口口口⑥ |⑦---|
78
⑤①⑧⑥ |①-②-|
③⑦②④ |③-④-|
④②⑦③ |⑤-⑥-|
⑥⑧①⑤ |⑦-⑧-|
79
⑦口口口 |①-②-|
①⑦②④ |③-④-|
⑤③口① |⑤-⑥-|
口口口⑥ |⑦---|
80
⑤①⑧⑥ |①-②-|
③⑦②④ |③-④-|
④②⑦③ |⑤-⑥-|
⑥⑧①⑤ |⑦-⑧-|
81
口口口口 |①-②-|
①口②④ |③-④-|
口③口①
口口口口

⑦口口口
口⑦口口
⑤口口⑧ |⑤-⑥-|
口口⑧⑥ |⑦-⑧-|


不确定度: 0

最終更新:2012年11月14日 15:10