アットウィキロゴ

ファンタジー
世界の終わり

ADVANCED

Level: 7
BPM: 180
Notes: 522

1
口口口口 |----|
口口口口 |----|
口口口口 |----|
口口口口 |----|
2
①口⑥① |--①-|
口⑤④口 |--②-|
口③口口 |③-④-|
②口口口 |⑤-⑥-|
3
①⑥口① |--①-|
口④⑤口 |--②-|
口口③口 |③-④-|
口口口② |⑤-⑥-|
4
口口口④ |--①-|
口口口口 |--②-|
①口②③ |③---|
口口口口 |④---|
5
口②③口 |①---|
③①①② |②-③-|
④口口⑤ |--④-|
口⑤④口 |⑤---|
6
①口⑥① |--①-|
口⑤④口 |--②-|
口③口口 |③-④-|
②口口口 |⑤-⑥-|
7
①⑥口① |--①-|
口④⑤口 |--②-|
口口③口 |③-④-|
口口口② |⑤-⑥-|
8
④口口④ |--①-|
②口口② |--②-|
④口口④ |③---|
③①①③ |④---|
9
口口口口 |----|
口口口口 |----|
口③④口 |①-②-|
①②口口 |③-④-|
10
口③口③ |①---|
②①②① |②---|
口④口④ |--③-|
口口口口 |--④-|
11
口⑤口⑤ |--①-|
口口④口 |②---|
②口③口 |③-④-|
①口口口 |--⑤-|
12
①③①③ |----|
口口口口 |①---|
口②口② |--②-|
口口口口 |--③-|
13
②口②口 |--①-|
口口口口 |----|
①口①口 |②---|
口口口口 |----|
14
口③口③ |①---|
②①②① |②---|
口④口④ |--③-|
口口口口 |--④-|
15
口⑤口⑤ |--①-|
口口④口 |②---|
②口③口 |③-④-|
①口口口 |--⑤-|
16
①③①③ |----|
口口口口 |①---|
口②口② |--②-|
口口口口 |--③-|
17
②口②口 |--①-|
口口口口 |----|
①口①口 |②---|
口口口口 |----|
18
口口口口 |①---|
④①①口 |②---|
口①①③ |③---|
②口口口 |④---|
19
口口口① |①-②-|
口口⑤② |--③-|
④口口口 |--④-|
口口③口 |--⑤-|
20
⑤⑥⑦口 |--①-|
口②口口 |②-③-|
口①④③ |④-⑤-|
口口口口 |⑥-⑦-|
21
口口口① |①---|
口⑥口口 |②-③-|
口口⑤口 |--④-|
②③口④ |⑤-⑥-|
22
③口②① |----|
口③①② |①---|
②①③口 |②---|
①②口③ |③---|
23
口①口③ |①---|
①口②口 |②-③-|
④口口① |--④-|
口④①口 |----|
24
口口口口 |--①-|
①②③④ |②-③-|
口⑤口口 |④-⑤-|
口⑥口口 |⑥---|
25
③②口① |①---|
口口⑥口 |②-③-|
口⑤口口 |--④-|
口④口口 |⑤-⑥-|
26
口③口口 |--①-|
②口口④ |②-③-|
①口口⑤ |--④-|
口口⑥口 |⑤-⑥-|
27
③④口口 |①-②-|
②口口口 |③-④-|
①⑦⑥⑤ |--⑤-|
口口口口 |⑥-⑦-|
28
口口③② |①-②-|
①口口口 |③---|
口口口口 |④-⑤-|
④⑤⑥⑦ |⑥-⑦-|
29
②③口① |①---|
口⑥口口 |②-③-|
⑤口口口 |--④-|
口④口口 |⑤-⑥-|
30
口③口口 |----|
③口②口 |①---|
口②口① |②---|
口口①口 |③---|
31
口④①口 |①--②|
口②④① |--③-|
③口②④ |-④--|
口③口口 |----|
32
口④口口 |--①-|
口口③口 |②-③-|
⑥口②口 |④---|
口⑤口① |⑤-⑥-|
33
口口⑤口 |①---|
①④口口 |②-③-|
口口③口 |--④-|
口口口② |⑤---|
34
④口口口 |①---|
口口口口 |②-③-|
⑤口口③ |--④-|
①口口② |--⑤-|
35
④⑤⑥口 |--①-|
口口③② |--②-|
口口口口 |③-④-|
口口口① |⑤-⑥-|
36
口口口口 |①---|
口④口口 |②-③-|
⑤口③口 |--④-|
①口②口 |--⑤-|
37
口②口① |----|
口口口口 |----|
口口口口 |①---|
口口口口 |②---|
38
口口口口 |①---|
③口口④ |②-③-|
②口口口 |----|
口口①口 |--④-|
39
口口口① |①---|
②口口口 |----|
口口口③ |②---|
口口口口 |③---|
40
口口口口 |①---|
口口口口 |----|
口口口口 |②---|
①口③② |③---|
41
③口口口 |①---|
口口口② |--②-|
①口口口 |----|
口口口口 |③---|
42
④口口口 |①---|
口口口口 |②-③-|
⑤口口③ |--④-|
①口口② |--⑤-|
43
④⑤⑥口 |--①-|
口口③② |--②-|
口口口口 |③-④-|
口口口① |⑤-⑥-|
44
口口口口 |①---|
口④口口 |②-③-|
⑤口③口 |--④-|
①口②口 |--⑤-|
45
口②口① |----|
口口口口 |----|
口口口口 |①---|
口口口口 |②---|
46
口口口口 |①---|
③口口④ |②-③-|
②口口口 |----|
口口①口 |--④-|
47
口口口① |①---|
②口口口 |----|
口口口③ |②---|
口口口口 |③---|
48
口口口口 |①---|
②口口② |----|
口口口口 |②---|
①口口① |----|
49
口②②口 |①---|
口②②口 |----|
①口口① |②---|
口口口口 |----|
50
①口⑥① |--①-|
口⑤④口 |--②-|
口③口口 |③-④-|
②口口口 |⑤-⑥-|
51
①⑥口① |--①-|
口④⑤口 |--②-|
口口③口 |③-④-|
口口口② |⑤-⑥-|
52
口口口④ |--①-|
口口口口 |--②-|
①口②③ |③---|
口口口口 |④---|
53
口②③口 |①---|
③①口② |②-③-|
④口口⑤ |--④-|
口⑤④口 |⑤---|
54
①口⑥① |--①-|
口⑤④口 |--②-|
口③口口 |③-④-|
②口口口 |⑤-⑥-|
55
①⑥口① |--①-|
口④⑤口 |--②-|
口口③口 |③-④-|
口口口② |⑤-⑥-|
56
④口口④ |--①-|
②口口② |--②-|
④口口④ |③---|
③①①③ |④---|
57
口②③口 |①---|
③口口② |②-③-|
④①①⑤ |--④-|
口⑤④口 |⑤---|
58
①口⑥① |--①-|
口⑤④口 |--②-|
口③口口 |③-④-|
②口口口 |⑤-⑥-|
59
①⑥口① |--①-|
口④⑤口 |--②-|
口口③口 |③-④-|
口口口② |⑤-⑥-|
60
口口口④ |--①-|
口口口口 |--②-|
①口②③ |③---|
口口口口 |④---|
61
口②③口 |①---|
③①①② |②-③-|
④口口⑤ |--④-|
口⑤④口 |⑤---|
62
①口⑥① |--①-|
口⑤④口 |--②-|
口③口口 |③-④-|
②口口口 |⑤-⑥-|
63
①⑥口① |--①-|
口④⑤口 |--②-|
口口③口 |③-④-|
口口口② |⑤-⑥-|
64
④口口④ |--①-|
②口口② |--②-|
④口口④ |③---|
③①①③ |④---|
65
口②③口 |①---|
③①①② |②-③-|
④口口⑤ |--④-|
口⑤④口 |⑤---|
66
②③④① |①-②-|
⑥口⑥口 |③-④-|
口⑤口⑤ |--⑤-|
口口口口 |--⑥-|
67
②①②① |--①-|
口③口③ |--②-|
口口口口 |③---|
④口④口 |④---|
68
口口口口 |①-②-|
⑥口⑥口 |③-④-|
②③④① |--⑤-|
口⑤口⑤ |--⑥-|
69
①口①口 |--①-|
口②口② |②---|
口口口口 |③---|
口③口③ |----|
70
口③口③ |①-②-|
口口口口 |--③-|
口①口①
②口②口

口口口口
④口④口
口⑤口⑤ |--④-|
口口口口 |--⑤-|
71
口口口口 |--①-|
口⑥⑤④ |②-③-|
口口口口 |--④-|
①②③口 |⑤-⑥-|
72
④③②① |--①-|
口口口口 |②-③-|
口口口口 |④-⑤-|
⑤⑥⑦口 |⑥-⑦-|
73
口③口口 |①-②-|
②口④口 |③-④-|
①⑤⑥⑦ |--⑤-|
口口口口 |⑥-⑦-|
74
③⑤②口 |①---|
⑤口口② |②---|
①口口⑤ |③-④-|
口①⑤④ |--⑤-|
75
②口口口 |--①-|
口口①口 |--②-|
④①口口 |③---|
口④口③ |④---|
76
口口①④ |①---|
口②口① |②---|
口口②⑤ |③-④-|
③口⑤口 |--⑤-|
77
③①口口 |--①-|
①口口口 |--②-|
④口口口 |③---|
口④口② |④---|
78
口口①④ |①---|
口口②① |②---|
⑤②口口 |③-④-|
③⑤口口 |--⑤-|
79
③口①口 |--①-|
口口④① |--②-|
口④口口 |③---|
口口口② |④---|
80
口②口① |①---|
③口④口 |②---|
口口①口 |③---|
口③口口 |④---|
81
口口①口 |①---|
③口④口 |②---|
口②口① |③---|
口③口口 |④---|
82
口口口口 |①---|
口①口口 |----|
口口①口 |----|
①口口① |----|


不确定度: 0

最終更新:2012年11月14日 15:47