アットウィキロゴ

800nm
Another Infinity (Ryu☆×Starving Trancer)

BASIC

Level: 5
BPM: 180
Notes: 310

1
口口口口 |----|
口口口口 |----|
口口口口 |----|
口口口口 |----|
2
口口口口 |①---|
①口口② |②---|
口③④口 |③---|
口口口口 |④---|
3
④口口口 |①---|
③口口口 |②---|
②口口口 |③---|
①口口口 |④---|
4
口口口口 |①---|
口③④① |②---|
口口口口 |③---|
口口口② |④---|
5
①口口口 |--①-|
口口口口 |----|
口口口口 |②---|
口口口② |----|
6
口口口口 |①---|
口口口口 |②---|
口口口口 |③---|
①②③④ |④---|
7
口口口口 |①---|
口口口口 |②---|
①②③④ |③---|
口口口口 |④---|
8
口口口口 |①---|
④③②① |②---|
口口口口 |③---|
口口口口 |④---|
9
④③②① |①---|
口口口口 |②---|
口口口口 |③---|
口口口口 |④---|
10
口口口④ |①---|
口口口③ |②---|
口口口② |③---|
口口口① |④---|
11
④口口口 |①---|
③口口口 |②---|
②口口口 |③---|
①口口口 |④---|
12
口④④口 |①---|
口③③口 |②---|
口②②口 |③---|
口①①口 |④---|
13
口口口① |①--②|
②口口口 |--③-|
口口口③ |----|
口口口口 |----|
14
①口口口 |①--②|
口口口② |---③|
③口口口 |----|
口口口口 |----|
15
②口口④ |①---|
口①③口 |②---|
口口口口 |③---|
口口口口 |④---|
16
口口口口 |①---|
①口口口 |②---|
②口口口 |③---|
③口口④ |④---|
17
③口口① |①---|
口④②口 |②---|
口口口口 |③---|
口口口口 |④---|
18
口口口口 |①---|
口口口① |②---|
口口口② |③---|
④口口③ |④---|
19
②口口④ |①---|
口口口口 |②---|
口③①口 |③---|
口口口口 |④---|
20
口口口口 |①---|
①口口口 |②---|
②口口口 |③---|
③口口④ |④---|
21
③口口① |①---|
口口口口 |②---|
口②④口 |③---|
口口口口 |④---|
22
口口④口 |①--②|
口③口口 |--③-|
①口口② |④---|
口口口口 |----|
23
②口口④ |①---|
口口口口 |②---|
口口口口 |③---|
③口口① |④---|
24
口口口口 |①---|
①口口口 |②---|
②口口口 |③---|
③口口④ |④---|
25
③口口① |①---|
口口口口 |②---|
口②④口 |③---|
口口口口 |④---|
26
口口口口 |①---|
④口口③ |②---|
口口口② |③---|
口口口① |④---|
27
②口口④ |①---|
口口口口 |②---|
口口口口 |③---|
③口口① |④---|
28
口口口口 |①---|
口口口① |②---|
口口口② |③---|
④口口③ |④---|
29
①口口③ |①---|
口口口口 |②---|
④口口② |③---|
口口口口 |④---|
30
口④口口 |①--②|
口口③口 |--③-|
口口口口 |④---|
②口口① |----|
31
口③口口 |①---②-|
口口口④ |--③---|
②口⑤口 |④---⑤-|
口⑥①口 |--⑥---|
32
口口②口 |①---②-|
①口⑥口 |--③---|
口⑤口③ |④---⑤-|
口口④口 |--⑥---|
33
①①口口 |①---|
口口口口 |----|
口口口口 |----|
口口口口 |----|
34
口口口口 |----|
口口①口 |----|
口口口口 |----|
口口口口 |--①---|
35
口口口口 |①---|
口①口口 |---②|
口口口口 |----|
口口②口 |----|
36
口口口口 |--①-|
①口口③ |--②-|
口②④口 |③---|
口口口口 |④---|
37
口口③口 |①---②-|
④口口口 |--③---|
口⑤口② |④---⑤-|
口①⑥口 |--⑥---|
38
口②口口 |①---②-|
口⑥口① |--③---|
③口⑤口 |④---⑤-|
口④口口 |--⑥---|
39
③③①① |①---|
口口②② |--②-|
口口口口 |----|
口口口口 |③---|
40
口口口口 |----|
口口②口 |----|
口①口口 |----|
口口口口 |①-②-|
41
①①②② |①---|
③③口口 |--②-|
口口口口 |----|
口口口口 |③---|
42
口口口口 |----|
口①②口 |----|
口口口口 |----|
口口口口 |①---②-|
43
口口口口 |----|
口口口口 |----|
口口①口 |----|
口口口口 |--①---|
44
口口口口 |①---|
口口口口 |----|
口①口口 |----|
口口口口 |----|
45
①口口口 |①---|
②③口口 |②---|
口④口口 |③---|
口口口口 |④---|
46
口口口① |①---|
口口③② |②---|
口口④口 |③---|
口口口口 |④---|
47
口口口口 |①---|
口口口口 |----|
口口口口 |----|
①①口口 |----|
48
口口口口 |----|
口口口口 |----|
口口口口 |----|
口口口口 |----|
49
②②④④ |①---|
口口口口 |②---|
口③①口 |③---|
口口口口 |④---|
50
口口口口 |①---|
①口口① |②---|
②口口② |③---|
③④④③ |④---|
51
③口口① |①---|
口口口口 |②---|
②②④④ |③---|
口口口口 |④---|
52
口口口口 |①---|
③④④③ |②---|
口口口口 |③---|
②①①② |④---|
53
②②④④ |①---|
口口口口 |②---|
口③①口 |③---|
口口口口 |④---|
54
口口口口 |①---|
口①①口 |②---|
②口口② |③---|
④③③④ |④---|
55
①口口③ |①---|
①口口③ |②---|
口④②口 |③---|
口口口口 |④---|
56
口④口口 |①--②|
口口③口 |--③-|
②口口口 |④---|
口口口① |----|
57
口口口口 |①---|
②口口④ |②---|
③口口① |③---|
口口口口 |④---|
58
口口口口 |①---|
口①①口 |②---|
口②②口 |③---|
④③③④ |④---|
59
口口口口 |①---|
③口口① |②---|
②口口④ |③---|
口口口口 |④---|
60
口①①口 |①---|
口②②口 |②---|
口③③口 |③---|
口④④口 |④---|
61
口口口口 |①---|
④口口② |②---|
①口口③ |③---|
口口口口 |④---|
62
①口口① |①---|
口②②口 |②---|
口③③口 |③---|
④口口④ |④---|
63
口口口口 |①---|
①口口③ |②---|
④口口② |③---|
口口口口 |④---|
64
口口④口 |①--②|
口③口口 |--③-|
口口口② |④---|
①口口口 |----|
65
口④口② |①---|
④口口② |②---|
口口口口 |③---|
①①③③ |④---|
66
口口口口 |①---|
口①①口 |②---|
②口口② |③---|
④③③④ |④---|
67
①口③③ |①---|
①口口口 |②---|
④口②② |③---|
口④口口 |④---|
68
①①口口 |①---|
②③③② |②---|
口④④口 |③---|
口口口口 |④---|
69
口口口口 |①---|
口口口口 |----|
口口口口 |----|
①口口① |----|
70
口口口口 |--①②|
口口①口 |③---|
口②口口 |----|
口口③口 |----|


不确定度: 0

最終更新:2012年11月06日 22:58