アットウィキロゴ

newsong


EXTREME

Level: 7
BPM: 128
Notes: 477

1
口口口口 |----|
口口口口 |----|
口口口口 |----|
口口口口 |----|
2
口口口口 |①-②-|
①口⑤口 |③-④⑤|
③④口①
口口②口

口⑦⑧⑧
⑨⑨口⑥
口口⑨⑨ |⑥-⑦-|
⑧⑧口口 |⑧-⑨-|
3
口②口口 |--①-|
口口口口 |②-③④|
口④口口
口③①口

口⑧口⑦
口⑧⑤⑦
⑦口⑧⑥ |⑤-⑥-|
⑦口⑧口 |⑦-⑧-|
4
口口口口 |--①-|
口口④口 |②-③④|
口③口②
口①口口

口口⑦⑦
⑧⑧口⑤
⑥口⑧⑧ |⑤-⑥-|
⑦⑦口口 |⑦-⑧-|
5
①①⑤⑤ |①②-③|
口⑥②口 |④-⑤⑥|
③③⑦⑦ |-⑦⑧-|
口⑧④口 |----|
6
口口①① |①-②-|
④口口口 |③-④-|
①①③口
口口口②

口⑧口口
口口⑤口
口⑥口⑦ |⑤-⑥-|
口口口口 |⑦-⑧-|
7
①口口④ |①-②-|
②⑤③⑤ |③-④-|
⑥口⑥口 |--⑤-|
口⑦口⑦ |⑥-⑦-|
8
口口口口 |----|
口②口① |①-②-|
口口口口
口口口口

口口口口
口口口⑥
④口③口 |③-④-|
⑤口口口 |⑤-⑥-|
9
口④②② |①-②-|
③③④口 |③-④-|
⑥①⑤口 |⑤-⑥-|
口⑥口⑤ |----|
10
口①口口 |----|
口口口② |①-②-|
口③⑥口 |③-④-|
口口⑤④ |⑤-⑥-|
11
③②③口 |①-②-|
④①④口 |③-④-|
口⑤口⑤ |⑤-⑥-|
⑥口⑥口 |----|
12
口口①口 |----|
②口口口 |①-②-|
口⑥③口 |③-④-|
④⑤口口 |⑤-⑥-|
13
口⑤①⑤ |--①-|
口④口④ |②-③-|
③口③口 |④-⑤-|
②口②口 |----|
14
口口③口 |①-②-|
④②口口 |③-④-|
口口①①
①①口口

口⑧口口
口口⑤口
口⑥口⑦ |⑤-⑥-|
口口口口 |⑦-⑧-|
15
①口口④ |①-②-|
②⑤③⑤ |③-④-|
⑥口⑥口 |--⑤-|
口⑦口⑦ |⑥-⑦-|
16
口口口口 |----|
口②口① |①-②-|
口口口口
口口口口

口口口口
口口口⑥
④口③口 |③-④-|
⑤口口口 |⑤-⑥-|
17
口④②② |①-②-|
③③④口 |③-④-|
⑥①⑤口 |⑤-⑥-|
口⑥口⑤ |----|
18
口①口口 |----|
口口口② |①-②-|
口③⑥口 |③-④-|
口口⑤④ |⑤-⑥-|
19
③②③口 |①-②-|
④①④口 |③-④-|
口⑤口⑤ |⑤-⑥-|
⑥口⑥口 |----|
20
口口①口 |----|
②口口口 |①-②-|
口⑥③口 |③-④-|
④⑤口口 |⑤-⑥-|
21
口⑤①⑤ |--①-|
口④口④ |②-③-|
③口③口 |④-⑤-|
②⑥②口 |--⑥-|
22
口口④口 |①-②-|
口③口口 |③-④-|
②口①①
口口口口

口口口口
口口口口
口口⑤口 |--⑤-|
口⑦⑥口 |⑥-⑦-|
23
口①①口 |①-②-|
②④④③ |③-④-|
②④④③ |----|
⑤口口口 |--⑤-|
24
③④⑤⑥ |①-②-|
②口口⑦ |③-④-|
①口口⑧ |⑤-⑥-|
口口口口 |⑦-⑧-|
25
口口口口 |①-②-|
口④④口 |③-④-|
口④④口 |----|
⑤③②① |--⑤-|
26
口⑥口口 |①-②-|
⑦口⑤④ |③-④-|
口①口③ |--⑤-|
口口②口 |⑥-⑦-|
27
④口口口 |--①-|
口口口口 |②-③-|
口①口③ |----|
口口②口 |--④-|
28
口口口口 |①-②-|
口口口① |③-④-|
②口口口
④④口③

口口口⑦
口口⑥⑥
口⑤⑤口 |--⑤-|
口口口口 |⑥-⑦-|
29
口⑥口口 |----|
口②⑤④ |①-②-|
口口口③ |--③-|
①口①口 |④⑤⑥-|
30
②口③② |--①-|
④口口④ |②③④-|
口①口口
口口口口

⑦口口口
口⑤⑤口
⑤口⑥⑤ |⑤---|
⑥口口⑥ |⑥--⑦|
31
⑤④③⑦ |--①-|
口口①② |②-③-|
口⑥口口 |④-⑤-|
⑥口口⑥ |⑥-⑦-|
32
口口口口 |--①-|
口口①③ |②-③-|
②口口口
口口口口

口口口口
④④口口
⑥口⑤⑤ |④-⑤-|
口口口口 |--⑥-|
33
口④口口 |①-②-|
③口①② |③-④-|
口口口口
口口口口

⑧口口⑤
口⑦⑥口
口口口口 |⑤-⑥-|
口口口口 |⑦-⑧-|
34
⑦①⑦口 |--①-|
①⑥②⑥ |②-③-|
⑤②⑤③ |④-⑤-|
④④③口 |⑥-⑦-|
35
⑥口口⑥ |--①-|
口⑥②③ |②-③-|
⑤①口⑦ |④-⑤-|
口④口口 |⑥-⑦-|
36
口口口口 |--①-|
口④①① |②-③-|
②②⑤口 |--④-|
口⑥③③ |⑤-⑥-|
37
⑦③②口 |①-②-|
④口口① |③-④-|
口口⑥口 |--⑤-|
⑥⑤⑤⑥ |⑥-⑦-|
38
⑤④③⑦ |--①-|
口口①② |②-③-|
口⑥口口 |④-⑤-|
⑥口口⑥ |⑥-⑦-|
39
口口口口 |--①-|
口口①③ |②-③-|
②口口口
口口口口

口口口口
④④口口
⑥口⑤⑤ |④-⑤-|
口口口口 |--⑥-|
40
口④口口 |①-②-|
③口①② |③-④-|
口口口口
口口口口

⑧口口⑤
口⑦⑥口
口口口口 |⑤-⑥-|
口口口口 |⑦-⑧-|
41
⑦①⑦口 |--①-|
①⑥②⑥ |②-③-|
⑤②⑤③ |④-⑤-|
④④③口 |⑥-⑦-|
42
口口口口 |--①-|
③口口③ |②-③-|
②口口②
①口口①

④⑤⑤④
口⑥⑥口
口⑦⑦口 |④-⑤-|
⑦口口⑦ |⑥-⑦-|
43
口口口④ |--①-|
③⑤口③ |②-③-|
②口⑤② |--④-|
⑥①①口 |⑤-⑥-|
44
④④口口 |①-②-|
口口③③ |③-④-|
②②口口
口口①①

口口⑦⑤
口⑦口⑦
口口⑥口 |--⑤-|
口⑥口⑥ |⑥-⑦-|
45
口口⑦⑦ |--①-|
⑧⑧④⑤ |②-③④|
③②⑧⑧ |⑤-⑥-|
⑦⑦①⑥ |⑦-⑧-|
46
口口③④ |--①-|
口口口口 |②-③④|
口②口口
口口①口

⑦⑦口口
口口⑧⑧
⑧⑧口⑤ |⑤-⑥-|
⑥口⑦⑦ |⑦-⑧-|
47
口③口口 |--①-|
口口④口 |②-③④|
口口②口
口①口口

口口⑦⑦
⑧⑧口⑤
口口⑧⑧ |⑤-⑥-|
⑦⑦口⑥ |⑦-⑧-|
48
①①⑤⑤ |①②-③|
口⑥②口 |④-⑤⑥|
③③口口
口口④口

口口口口
口口⑨⑨
⑨⑨⑦⑦ |-⑦⑧-|
口⑧口口 |⑨---|

不確定度: 0

最終更新:2014年08月01日 00:43