アットウィキロゴ

シンデレラ
奥華子

EXTREME

Level: 7
BPM: 120
Notes: 439

1
口口口口 |----|
口口口口 |----|
口口口口 |----|
口口口口 |----|
2
口口口口 |①---|
①口①① |--②-|
②口口口
口口口口

口口口口
口⑥⑤口
口③口④ |③-④-|
口口口口 |⑤-⑥-|
3
③口①③ |----|
口口口口 |①-②-|
口②口口 |----|
口口口口 |③---|
4
口口口口 |①---|
①口②① |②-③-|
口③口口 |----|
④口口④ |④---|
5
口口口③ |①-②-|
口②④口 |③-④-|
①口口口 |----|
口⑤⑤口 |⑤---|
6
口⑤⑥口 |①---|
口口④口 |--②-|
①②①① |③-④-|
口口③口 |⑤-⑥-|
7
口口口① |----|
口口口口 |①-②-|
②口口口 |----|
③口③③ |③---|
8
口①①口 |①---|
②口口② |--②-|
③口口③ |----|
口口口口 |③---|
9
口口口口 |①---|
③②口口 |----|
口口口口 |----|
口①①① |②-③-|
10
口口口① |①-②-|
口⑥⑥② |③-④-|
口③口⑤ |⑤-⑥-|
⑦④口口 |--⑦-|
11
⑥⑤口② |①-②-|
口口③口 |③-④-|
口①口口 |----|
口④④口 |⑤-⑥-|
12
口口口口 |①-②-|
口⑥①口 |③-④-|
口③⑥② |⑤-⑥-|
④⑦口⑤ |--⑦-|
13
口口口③ |①-②-|
口④②口 |③-④-|
口①④⑥ |----|
口口口⑤ |⑤-⑥-|
14
①②口口 |①-②-|
口②③④ |--③-|
口⑤口口 |④-⑤-|
口⑥⑦⑦ |⑥-⑦-|
15
①口口口 |--①-|
⑤②口口 |②-③-|
④口③③ |----|
口口口口 |④-⑤-|
16
口①②口 |①-②-|
口口口③ |③-④-|
口口口④
口口口口

口口口口
⑦⑦⑧⑧
口口口口 |⑤-⑥-|
⑤⑤⑥⑥ |⑦-⑧-|
17
口口口口 |①---|
③②口口 |----|
口①①口 |----|
口口口口 |②-③-|
18
①口口① |①-②-|
口⑦⑥② |③-④-|
⑤③口⑤ |⑤-⑥-|
⑧④口口 |⑦-⑧-|
19
口口口② |①-②-|
口口③口 |③-④-|
口①①口
口④④口

⑦⑥口口
口口口口
口口⑤口 |--⑤-|
口口口口 |⑥-⑦-|
20
口口口口 |①-②-|
口①①口 |③-④-|
⑤③⑥② |⑤---|
④⑦⑤⑤ |⑥-⑦-|
21
口口口③ |①-②-|
口④②口 |③-④-|
口①④①
口口口口

口口口口
口口口口
口口口⑥ |----|
口口口⑤ |⑤-⑥-|
22
①②③① |①-②-|
口④④口 |③-④-|
口⑤口口 |--⑤-|
口⑥⑦口 |⑥-⑦-|
23
②口口口 |①-②-|
⑦③口⑦ |③-④-|
口口④④ |--⑤-|
①⑥⑤① |⑥-⑦-|
24
①口口① |--①-|
口②③口 |--②-|
④⑥⑥⑤ |③-④-|
口口口口 |⑤-⑥-|
25
口口口口 |①---|
②口口③ |----|
②口口③ |----|
口①①口 |②-③-|
26
口①①口 |①---|
口③③口 |②-③-|
口②②口
口口口口

④⑤口口
口口口⑥
口口口口 |--④-|
口口口口 |⑤-⑥-|
27
口口口口 |①-②-|
口口①口 |③-④-|
②③口口
口口④④

口口口口
⑤口口口
⑥口⑦口 |--⑤-|
口口口口 |⑥-⑦-|
28
①①③③ |①---|
口口口口 |②-③-|
口②⑤口 |----|
口④口口 |④-⑤-|
29
③口口③ |①---|
①②②① |②-③-|
口⑤⑥口 |--④-|
④口④④ |⑤-⑥-|
30
口口口口 |①---|
①①口① |②-③-|
③口口③
口②②口

口口口口
口④⑤口
口口口口 |----|
口口口口 |④-⑤-|
31
口口口口 |①---|
口口口口 |②-③-|
①①②①
③③口③

口口口口
口⑤⑥口
口④口口 |--④-|
口口口口 |⑤-⑥-|
32
⑦⑦口⑤ |①-②-|
口⑥⑧⑤ |③-④-|
①④②口 |⑤-⑥-|
①口③③ |⑦-⑧-|
33
⑦⑦口⑦ |①-②-|
⑤⑤⑥⑤ |③-④-|
③③④③ |⑤-⑥-|
①①②① |⑦---|
34
口口口口 |①---|
口口口口 |--②-|
①①①①
②②口口

口④⑤口
口④⑤口
口⑥⑥口 |③-④-|
口口③③ |⑤-⑥-|
35
①③⑤⑦ |①-②-|
①③⑤⑦ |③-④-|
口口口口 |⑤-⑥-|
⑧⑥④② |⑦-⑧-|
36
口④③口 |①---|
口口口口 |--②-|
⑤①①② |③-④-|
口⑥口口 |⑤-⑥-|
37
③口③③ |①---|
①口①① |②-③-|
口②口口
口口口口

口口口口
口口④口
口口口口 |----|
口口口口 |--④-|
38
③③口③ |①---|
口口口口 |②-③-|
①①②①
口口口口

口口口口
口④④口
口⑤⑤口 |----|
口口口口 |④-⑤-|
39
⑥口⑤⑥ |①---|
③④③③ |②-③-|
口口口口 |--④-|
①②①① |⑤-⑥-|
40
口口口口 |--①-|
口口口口 |----|
①①口①
口口口口

口口口口
口口②口
口④③口 |--②-|
口口口口 |③-④-|
41
口③②口 |①-②-|
④①⑤④ |③-④-|
口⑥口口 |--⑤-|
口口⑦口 |⑥-⑦-|
42
③口口口 |①---|
口口③③ |②-③-|
口口②①
①①口口

口口口口
口④口口
口口口口 |--④-|
⑤口口⑤ |⑤---|
43
口③④口 |①-②-|
③口口④ |③-④-|
①口口②
口①②口

口口口⑦
口口⑦口
⑥⑥口口 |--⑤-|
⑤⑤口口 |⑥-⑦-|
44
③口④口 |--①-|
口③⑤口 |②-③-|
口⑥②② |④-⑤-|
口⑦①① |⑥-⑦-|
45
口②口口 |①---|
③④③③ |②-③-|
①口①① |----|
口口口口 |--④-|
46
③③④③ |①---|
⑥口⑤口 |②-③-|
①①②① |--④-|
口口口口 |⑤-⑥-|
47
口口口口 |①---|
口③口口 |②-③-|
①②①①
口口口口

⑤⑥口口
④口④④
口口⑥口 |④---|
口口口口 |⑤-⑥-|
48
口口①口 |--①-|
口④③② |②---|
②口口口 |----|
口口口口 |③-④-|
49
④⑤口⑥ |①---|
③口③③ |②-③-|
①②①① |--④-|
口口口口 |⑤-⑥-|
50
口口②口 |①---|
③③口③ |②-③-|
①①口口
口口口口

口口口口
口口口口
⑥口⑤④ |--④-|
口口口口 |⑤-⑥-|
51
①①②① |①---|
③④③③ |②-③-|
⑤⑤⑥⑤ |--④-|
口口口口 |⑤-⑥-|
52
口口口口 |①---|
口口口口 |----|
口口口口 |----|
①口①① |----|

不確定度: 0

最終更新:2014年08月01日 02:25