BASIC
ADVANCED
EXPERT
MASTER
(216)
{1}A2/D3/A3/E3/B2/B3/Cf/A7/D7/A6/E7/B7/B6,{4},,
34,24,14,{8}5,5,4,4,6,6,{4}65,75,85,{8}4b/7b,3b/6b,2b/5b,1b/4b,,,
3qq4[2:1],,4,4,,5,5,,46,,7qq8[2:1],,8,8,,1,1,,82,,3qq4[2:1],,4,4,,5,5,,46,,7qq8[2:1],,8,8,,1,1,,82,,
3-7[8:1],7-3[8:1],{1}3V16[2:1]*V58[2:1],{8}7-3[8:1],{1}3pp7[8:5]*qq7[8:5],{8},
6-2[8:1],2-6[8:1],{1}6V83[2:1]*V41[2:1],{8}2-6[8:1],{1}6qq2[8:5]*pp2[8:5],{8},
1q5[8:1],,6,6q2[8:1],,4,4,,A5/E5/B5,,8p4[8:1],,3,3p7[8:1],,5,5,,A4/E5/B4,,
2q6[8:1],,7,7q3[8:1],,5,5,,B4/E5/A4/A6/B6/E6,,7p3[8:1],,2,2p6[8:1],,4,4,,35,,
8^2[8:1],,4,4^5v3[4:1],,8,8,,E6/B6/E7,,1^7[8:1],,5,5^4v6[4:1],,1,1,,E4/B3/E3,,
4^6[8:1],,8,8^1v7[4:1],,4,4,,E2/B2/E3,,5^3[8:1],,1,1^8v2[4:1],,5,5,,E8/B7/E7,,
{4}2v3V17[2:1],,6h[4:1],,5,6v7V53[2:1],,2h[4:1],,1,3v2V46[2:1],,7h[4:1],,8,
7v8V64[2:1],,3h[4:1],,2,1v8V24[2:1],,5h[4:1],,6,5v4V68[2:1],,1h[4:1],,3,
4v5V31[2:1],,8h[4:1],,7<1[2:1],Cf,{1},
{8}56,,45,,34,D1/A1/D2/A2/D3/E1/E2f/E3/B1/B2,,,,,57,,46,,35,A8/D1/A1/D2/A2/E1/E2/B8/B1f/B2,,,,,
43,,54,,65,D1/A8/D8/A7/D7/E1/E8f/E7/B8/B7,,,,,42,,53,,64,A1/D1/A8/D8/A7/E1/E8/B1/B8f/B7,,,,,
(172.8)
{12}2b,4,3,5,4,6,4,6,4,5,3,3,7b,5,6,4,5,3,5,3,5,4,6,6,
1b,4,2,5,3,6,4,7,3,6,2,2,8b,5,7,4,6,3,5,2,6,3,7,7,
{48}1/E7,B6,B5,E5,,,,,,,,,8/E3,B3,B4,E5,,,,,,,,,1/E7,B6,B5,E5,,,,,,,,,8/E3,B3,B4,E5,,,,,,,,,
2/A6,D6,A5,D5,,,,,,,,,7/A3,D4,A4,D5,,,,,,,,,2/A6,D6,A5,D5,,,,,,,,,7/A3,D4,A4,D5,,,,,,,,,
1/E7,B6,B5,E5,,,,,,,,,8/E3,B3,B4,E5,,,,,,,,,1/E7,B6,B5,E5,,,,,,,,,8/E3,B3,B4,E5,,,,,,,,,
2/A6,D6,A5,D5,,,,,,,,,7/A3,D4,A4,D5,,,,,,,,,2/A6,D6,A5,D5,,,,,,,,,7/A3,D4,A4,D5,,,,,,,,,
1b/E7,B6,B5,E5,,,,,,,,,8b/E3,B3,B4,E5,,,,,,,,,2b/A6,D6,A5,D5,,,,,,,,,7b/A3,D4,A4,D5,,,,,,,,,
3b/E7,B7,B8,E1,,,,,,,,,6b/E3,B2,B1,E1,,,,,,,,,4b/B6,B7,E8,A8,,,,,,,,,5b/B3,B2,E2,A1,,,,,,,,,
1b/E7,B6,B5,E5,,,,,,,,,8b/E3,B3,B4,E5,,,,,,,,,2b/A6,D6,A5,D5,,,,,,,,,7b/A3,D4,A4,D5,,,,,,,,,
3b/E7,B7,B8,E1,,,,,,,,,6b/E3,B2,B1,E1,,,,,,,,,4b/B6,B7,E8,A8,,,,,,,,,5b/B3,B2,E2,A1,,,,,,,,,
(216)
{8}8,7,6,4-8[8:1]/5,,7,7h[4:1],,8,8,1,2,3,46,7,8V24q7[8:7],{1},{8},,
8V62^1-5[8:5],,4,4,,3,,2,,1V37^8-4[8:5],,5,5,,6,,7,,7V51^8-4[8:5],,3,3,,2,,3,,2V48^1-5[8:5],,6,6,,7,,6,,
5V73^4-8[8:5],,1,1,,2,,3,,4V26^5-1[8:5],,8,8,,7,,6,,6V84^5-1[8:5],,2,2,,3,,4,,3V15^4-8[8:5],,7,7,,6,,5,,
3h[4:1],,E5,6h[4:1],,B5,4h[4:1],,A6,7h[4:1],,E7,5h[4:1],,D8,,
48,,6,6h[4:1],,E5,3h[4:1],,B4,5h[4:1],,A3,2h[4:1],,E5f,,3b/5b,,4b/6b,,
8x^6-2-5-1[8:5],,4,4,,3x,,2x,,1x^3-7-4-8[8:5],,5,5,,6x,,7x,,
6x^4-8-3-7[8:5],,3,3,,2x,,1x,,3x^5-1-6-2[8:5],,6,6,,7x,,8x,,
{12}8b^1-3[8:1]*^7-5[8:1],8,,,,,1b^2-4[8:1]*^8-6[8:1],1,,,,,{24},
{12}2b^3-5[8:1]*^1-7[8:1],2,,,,,,3b^4-6[8:1]*^2-8[8:1],3,,,,,,{24},
{12}4b^5-7[8:1]*^3-1[8:1],4,,,,,{24},{12}5b^6-8[8:1]*^4-2[8:1],5,,,,,{24},
{12}6b^7-1[8:1]*^5-3[8:1],6,,,,,{24},{12}7b^8-2[8:1]*^6-4[8:1],7,,,,,,{24},
{24}2b/A8,D8,A7,D7,A6,D6,A5,D5,A4,D4,A3,D3,A2,D2,A1,{8}D1/Cf,,,,,
{24}8b/A3,D4,A4,D5,A5,D6,A6,D7,A7,D8,A8,D1,A1,D2,A2,{8}D3/Cf,,,,,
{24}1b/A6,D6,A5,D5,A4,D4,A3,D3,A2,D2,A1,D1,A8,D8,A7,{8}D7/Cf,,,,,
{24}7b/A2,D3,A3,D4,A4,D5,A5,D6,A6,D7,A7,D8,A8,D1,A1,{8}D2/Cf,,,,,
{16}8b/E4f,7x,6x,5x,4x,3b,2x,1x,8x,7x,6b,5x,4x,3x,2x,1b,8x,7x,6x,5x,
4b/E8f,3x,2x,1x,8x,7b,6x,5x,4x,3x,2b,1x,8x,7x,6x,5b,4x,3x,2x,1x,
8b/E4f,7x,6x,5x,4x,3b,2x,1x,8x,7x,6b,5x,4x,3x,2x,1b,8x,7x,6x,5x,
4b/E8f,3x,2x,1x,8x,7b,6x,5x,4x,3x,2b,1x,8x,7x,6x,5b,4x,3x,2x,1x,{1}8b/Cf,
{8}4,4,6,5,37,4,2,5w1b[8:5],,,{2},,4w8b[8:5],,,
{8}4b/D7f/E7/B7,3b/D6f/E6/B6,2b/D5f/E5/B5,1b/D4f/E4/B4,8b/D3f/E3/B3,7b/D2f/E2/B2,{1}7b/D1f/E1/B1,,,,E
Re:MASTER
- 追加しました。修正等ありましたらよろしくお願いします。 -- けもがみ (2023-02-01 06:08:26)
最終更新:2026年04月09日 20:07