BASIC
ADVANCED
EXPERT
(208)
{4}D2,D3,D4, E2,E3,E4,
{4}B2,B3,B4, B5,B6,B7,
{4}E6,E7,E8, D6,D7,D8,
{4}E1,C,E5, ,3,5,
{4}7h[4:1],5h[4:3],, ,6,4,
{4}2h[4:1],4h[4:3],, ,3,5,
{4}7h[4:2],,5, 5h[4:2],,4,
{8}4h[8:3],,,2,2q7[4:2]*>7[4:2],, ,,,,,,
{4}81,2,3, 42,3,4,
{4}54,6,7, 7/5h[4:2],6,6,
{4}4h[4:2]/3,3,1, 82,73,64,
{4}5<4[4:3],,, ,1,2,
{4}43,5,4, 65,4,5,
{4}42,5,4, 57,64,53,
{4}4/2h[4:1],1,82, 5/7h[4:1],8,17,
{4}42,75,8-4[4:1]b/1-5[4:1]b , ,,,
{4}4h[4:1]/2,3,4, 5h[4:1]/7,6,5,
{4}4h[4:1],5,54, 3,4,5,
{8}6,,75,7/5h[8:3],,, 4,,24,2/4h[8:3],,,
{4}5,64,7qq8[4:2]/3qq4[4:2], ,,,
{8}6bh[8:31]/2b,2,2,2,2,2,2,2, 3,3,3,3,3,3,3,3,
{8}4,4,4,4,4,4,4,4, 5,5,5,5,5,5,5,5,
{8}3bh[8:31]/7b,7,7,7,7,7,7,7, 6,6,6,6,6,6,6,6,
{8}5,5,5,5,5,5,5,5, 4,4,4,4,4,4,4,4,
{8}6x/2x,,7/5>7[2:1],75,,,,, ,,65,,78,,12,,
{8}43,,52,52,,74,7p3[4:1]/4,, 1,,2h[4:1],,3h[4:1],,4>1[4:1],,
{8}5,,7,7h[4:1],,8,8[4:1],, 6,,71,,82,,1<3[4:2]/3,,
{8},,,, ,2-6[8:1],2,8, ,,73,, {16}1,2,3,4,8,7,6,5,
{8}2>5[4:1],,6,6,,7,5,6, 7<4[4:1],,1,1,,3,4,2,
{8}6,5,7,4h[4:1],,5,5<8[4:1]/4>1[4:1],, ,,,,72,,54,,
{8}2,2,1,1,3,3,5,5, 4,4,6,6,8,8,7,7,
{8}8x/1,1,7/8x,7,1x/2,2,8/1x,8, {1}7b/2b,
{8}8/1>6[4:1],,,7,7-3[8:1],,1,, 8<3[4:1]/2,,,2,2-6[8:1],,8,,
{8}8/1>6[4:1],,,8, {16}8h[16:3],,,7h[16:3],,,6,, {16}2h[16:3],,,3h[16:3],,,4,, {4}4-2[8:1]*-8[8:1],,
{8}1,1,7-4[8:1],7,3,,12,, 8,8,2-5[8:1],2,6,,87,,
{8}1h[4:1],,8,, {16}43,,,43,,,71,, {16}56,,,56,,,28,, {4}8/2-6[8:1]b,,
{8}7,7,5,6,3,4,12,, 2,2,4,3,6,5,87,,
{8}1,1,8,8, {16}2h[16:3],,,3h[16:3],,,4,, {16}8h[16:3],,,7h[16:3],,,6,, {16}4h[16:3],,,3h[16:3],,,2,,
{8}1/2>5[8:1],,6,,8/7<4[8:1],,3,, 1h[4:1],,8,8<5[4:1]/1>4[4:1],,,,,
{16}1h[16:3],,,2h[16:3],,,3,, {16}5h[16:3],,,6h[16:3],,,7,, {4}7-5[8:1],1-3[8:1], 8-4[8:1],1>8[4:15],
{1}Ch[8:3], Ch[8:3],
{1}Ch[8:3], Ch[8:3],
{16}1h[16:3],,,8h[16:3],,,1,, {4}7/2-6[8:1],, {16}7h[16:3],,,8,,,61,, {16}2h[16:3],,,1,,,38,,
{16}7h[16:3],,,2,,,54,, {4}5<8[8:1]/4>1[8:1],, {2}E1/B1/C/B5/E5, ,
{1}4h[8:3]/3h[8:4], {1}5h[8:3]/6h[8:4],
{4}5h[8:3]/4h[8:4],,,54, 3,4,5,6,
{4}8h[8:3]/7h[8:4],,,8, {4}1h[8:3]/2h[8:4],,,1,
{4}8h[2:1],,1,8, 7,6>3[4:2],,,
{1}Ch[2:1],
{8}8b/1b,,,42, {16}42,,,65,,,82,, {8}8b/2b,,,57, {16}57,,,34,,,17,,
{8}1b/7b,,,12, {16}1/2h[8:3],,,4,,,78,, {16}8/7h[8:3],,,5,,,21,, {4}1/2-6[8:1],8b,
{8}7-4[8:1],7,3,3,2,1,83,, {8}2-5[8:1],2,6,6,7,8,1>4[4:1]/6<1[4:1],,
{2}, {16}7xh[8:3]/5,,,8,,,54,, {16}2xh[8:3]/4,,,1,,,45,, {2}7b/2b,
{8}1-5[8:1],1,8-6[8:1],8,2-4[8:1],2,7-5[8:1],7, 1-3[8:1],1,8-4[8:1],8,2-6[8:1],2,7,7,
{16}8x/1,,,3h[16:3],,,4,, 6x/5,,,8h[16:3],,,1,, 4x/2,,,7h[16:3],,,5,, 8/1x,,,2h[16:3],,,4,,
{8}7x-3[8:1]/5x,,,2, {16}2h[16:3],,,4h[16:3],,,3,, {8}2x-6[8:1]/5x,,,7, {16}7h[16:3],,,5h[16:3],,,6,,
{16}7h[8:1]/8xh[8:1],,,6h[8:1]/1xh[8:1],,,5/2x,, {8}3,3,4,3, {16}2h[8:1]/1xh[8:1],,,3h[8:1]/8xh[8:1],,,4/7x,, {8}6,6,5,6,
{16}7bh[8:1]/8bh[8:1],,,6bh[8:1]/5bh[8:1],,,4b/3b,, {16}2bh[8:1]/1bh[8:1],,,3bh[8:1]/4bh[8:1],,,5b/6b,, {4}8bx/1bx,, {16},,,,3,4,3,4,
{16}2b,,,,6,5,6,5, 7b,,,,3,4,3,4, 1b,,,,6,5,6,5, 8b,,8,,1,,1,,
{16}8b/1b,,,,2,1,2,1, 3b,,,,7,8,7,8, 6b,,,,1,8,1,8, 7bx/2bx,,7x/2x,,7xpp4>1[4:15]/2xqq5<8[4:15],,7x/2x,,
{1}7x/2x, ,
{1}, ,
{16}B1,B2,B3,B4,B5,B6,B7,B8, E1,E2,E3,E4,E5,E6,E7,E8, D1,D2,D3,D4,D5,D6,D7,D8, 1,2,3,4,5,6,7,8,
{1}A1/B1/C/B5/A5,,,,E
MASTER
(208)
{4}5,4,4,B6/E6,B3/E4,5,B6/E6,B3/E4,4,B6/E6,B3/E4,
7h[4:1],B6/E6,B3/E4,5h[4:1],B6/E6,B3/E4,4h[4:1],B6/E6,B3/E4,2h[4:1],B6/E6,B3/E4,
7,8/B6/E6,8/B3/E4,8h[4:1],B6/E6,B3/E4,5,7/B6/E6,7/B3/E4,7h[4:1],B6/E6,B3/E4,5,B6/E6,B3/E4,
{8}5h[4:1],,,46,46,,4h[4:1]/6h[4:1],,,46,46,,5h[4:1]/3h[4:1],,,53,53,,4b,,
6,7,8,1,{4}2,E5/B5,E4/B3,4,{8}6/E5/B5,7,8/E4/B3,1,{4}2,E5/B5,E4/B3,4h[4:1],E5/B5,E4/B3,7h[4:1],E5/B5,E4/B3,
{8}2,1,8/E5/B5,7,{4}6/E4/B3,4,4h[2:1]/E5/B5,E4/B3,,{8}6/E5/B5,7,8/E4/B3,1,{4}2,E5/B5/4,E4/B3/4,6h[4:1],E5/B5,E4/B3,
2h[4:1],E5/B5,E4/B3,7,8/E5/B5,8/E4/B3,7h[4:1],E5/B5,E4/B3,2h[4:1],E5/B5,E4/B3,6h[4:1],E5/B5,E4/B3,1b,,,
{12}7,6,5,E8,E7,E6,E5,,,2,3,4,E2,E3,E4,E5,,,7,6,5,E8,E7,E6,E5,,,2,3,4,E2,E3,E4,E5,,,
{4}8^5[2:1],4,2,1^4[2:1],5,7,8^5[2:1],4,2,1b,,,
{16}2bx/5bx,,3,4,3,,3,4,3,,3,4,3,,3,4,3,,3,4,3,,3,4,3,,3,4,3,,3,4,3,,
3,2,3,,3,1,3,,3,8,3,,3,7,3,,3,6,3,,3,5,3,,3,4,3,,45,,
6b,,6,5,6,,6,5,6,,6,5,6,,6,5,6,,6,7,6,,6,8,6,,6,1,6,,6,2,6,,6,3,6,,6,4,6,,6,5,6,,6,4,6,,6,5,6,,6,3,6,,6,5,6,,
{8}45,3b/6hb[4:1],,5,,8/3h[4:1],,5,5,,17,{4}1^4[8:1]/7,8^5[8:1]/1,18,
{8}3h[1:1],,4,4,,2,2,,8,,{12}7,5,6,3,4,2,8,4,7,{8}5h[4:1],,6,6V84[4:1],,1,{4}1^6[8:1],5,8^3[8:1],4,45,
{12}36,4,5,36,5,4,{8}36,27,18,2h[4:1]/7,,{16}6,7,8,1,2,3,{8}4bx,4x,5x,5x,
1b/6b,,38,3h[4:1]/8,,{16}E4,E5,E6,E7,E8,,{8}2,,6,6h[4:1],,{16}E6,E5,E4,E3,E2,,
{8}5-7[8:1],5,3,3,8-4[8:1],8,2,1,{2}5^8[8:1]/8^3[8:1],{4}1x/3x,45,6b/1b,
{16}25,,3,4,3,,3,,25,,3,4,3,,3,,25,,3,4,3,,3,,{8}5/2-6[8:1],6,
{4}2b/7-3[8:1],7b/1-5[8:1],1b/8^3[8:1],8b/6-1[8:1],{1}4hbx[1:1]/6bx,
{4}7-5[8:1],{16}57,,,3,{8}4-8[8:1],1,24,3,7/4-8[8:1],,45,{16},6,{8}1-3[8:1],5,16,7,8x/4x,,
{16}6,5,6,5,7h[8:1],,8,6h[8:1],,1,5,,2h[8:1],,1,3h[8:1],,8,4,,{4}7-5[8:1]/5-1[8:1],75,
{16}2,3,4,5,1,8,7,6,4,3,2,1,7,6,5,4,8,1,2,3,5,6,7,8,2,3,4,5,7,6,5,4,{4}1h[4:1],
{16}7,8,7,8,6h[8:1],,5,7h[8:1],,4,8,,3h[8:1],,5,2h[8:1],,6,1,,
{4}78,45,{16}3b/4b,,25,,1,1,8,,65,,74,,8,8,1,,12,,38,,4,4,5,,78,,61,,5,5,4,,27,,1,8,2,7,3,6,
4h[8:1],,,3h[8:1]/5h[8:1],,,26,,7h[8:1],,,6h[8:1]/8h[8:1],,,15,,2h[8:1]/4h[8:1],,,3h[8:1]/5h[8:1],,,26,,
{8}2b-6-3-8[8:3]/6b,,1,8,7,6,5,5,7-3-6-1[8:3]/3,,8,1,2,3,4,4,
{16}2^5[8:1]/6,,,1,2,,8,,7^4[8:1],,,8,7,,1,,{4}2b-6[8:1],2b/5b-8[8:1],4b/5b,2b/7b,
{12}1,1,1,8,8,8,2,4,3,7,5,6,4,4,4,5,5,5,3,4,2,6,5,7,1,1,1,3,3,3,5,5,5,7,7,7,1,8,2,7,3,6,
{4}4h[4:1],{16}5,4,5,4,{16}3bx/Cf,,,8x,,,7x,,7hx[4:1]/2bx,,,,5,6,5,6,
7bx/E5f,,,1x,,,2x,,8bx/E5f,,,7x,,,6x,,3bx/E5f,,,1x,,,2x,,{4}7bx<2[4:1]/Cf,,
{1}1bh[2:19],4<8[4:5],,8p4[4:5],,4>8[4:5],,8V27-3-6-4[4:9],,{8},,,,,,,
{32},,1,8,{2}7bx/2hbx[8:7],{16}8bx,,,3bx,,,6bx,,{2}2bx/6hbx[8:7],{16}4bx,,,7bx,,,1bx,,
{2}6bx/1hbx[2:1],{16}4bhx[16:3],,,3bhx[16:3],,,1bhx[8:1],,8bhx[16:3],,,7bhx[16:3],,,5bhx[8:1],,
{8}6bx,,1^4[8:1]/8,,1b-6[8:1],5,1-5[8:1],5,1,8,{24}1-6[8:1],2,3,{8}46,1b^4[8:1],5,1-5[8:1],5,1,8,
{24}1-6[8:1],2,3,{8}46,1b,5,{24}1,2,3,{8}46,{16}7b/8bx,,,1bx/2b,,,3bx/4b,,5b/7bx,,,1bx/8b,,,2b/7bx,,
{4}2bx/7b,45,{16}3b,4,3,4,3,4,3,4,1,8,1,8,1,8,1,8,4,6,4,6,4,6,4,6,2,4,2,4,2,4,2,4,
3hb[8:1]/4hbx[8:1],,,1hbx[8:1]/2hb[8:1],,,3bx/8b,,6hb[8:1]/5hbx[8:1],,,8hbx[8:1]/7hb[8:1],,,6bx/1b,,
4hb[8:1]/2hbx[8:1],,,5hbx[8:1]/4hb[8:1],,,7bx/5b,,1hb[8:1]/8hbx[8:1],,,2hbx[8:1]/7hb[8:1],,,6bx/3b,,
4,5,4,5,3,6,3,6,1,8,1,8,2,7,2,7,5,6,5,6,2,1,2,1,3,4,3,4,1,6,1,6,
1b,6,2,5,3,4,3,3,8b,3,7,4,6,5,6,6,1b,6,2,5,3,4,3,3,8b,1,7,2,6,3,5,4,
{32}5b,6,7,8,1,2,3,4,5,6,7,8,1,2,3,4,5,6,7,8,1,2,3,4,5,6,7,8,1,2,3,4,{4}Cf,,,
{16}4,5,4,5,{4}4b^1[12:1],{32}8,7,6,5,8,7,6,5,{4}4b^1[12:1],{32}8,7,6,5,8,7,6,5,
{4}4b^1[12:1],{32}8,7,6,5,8,7,6,5,{4}4b,{16}5,4,5,4,{4}6b^1[12:1],{32}2,3,4,5,2,3,4,5,
{4}6b^1[12:1],{32}2,3,4,5,2,3,4,5,{4}6b^1[12:1],{32}2,3,4,5,2,3,4,5,{4}6b,17,
{16}3,5,3,5,3,5,3,5,3,5,3,5,3,5,3,5,4,6,4,6,4,6,4,6,4,6,4,6,4,6,4,6,
3,7,3,7,3,7,3,7,3,7,3,7,3,7,3,7,2,8,2,8,2,8,2,8,2,8,2,8,2,8,2,8,
1b,1,1,1,1,1,1,1,1,1,1,1,1,1,1,1,1,1,1,1,1,1,1,1,1,1,1,1,1-5b[1:2],1,1,1,{1}1bh[1:2],,,,,,,,E
Re:MASTER
- 追加しました。修正等ありましたらよろしくお願いします。 -- けもがみ (2023-02-05 04:04:06)
- added EXPERT -- cubruce1103 (2023-07-16 18:27:39)
最終更新:2026年04月12日 13:12