アットウィキロゴ

"411Ψ892"

アーティスト Tanchiky

BPM BASIC ADVANCED EXPERT MASTER Re:MASTER
184 5 8+ 12+ 14 -

EXPERT MASTER Re:MASTER
譜面制作者 ロシェ@ペンギン サファ太 vs じゃこレモン -

BASIC


ADVANCED


EXPERT

(184){1},5<4q6[4:13],,,,4>5p3[2:5],,,{4}Ch[4:3],,,1,{2}2bh[2:3]/8b,E8,E7,E6,{8}1hx[4:1]/5hx[4:1],,,1x/5x,{4},,E3,,E2,1x/8x,{16}4h[16:3],,,3h[16:3],,,2,,5h[16:3],,,6h[16:3],,,7,,4h[16:3],,,3h[16:3],,,2,,5h[16:3],,,6h[16:3],,,7,,{8}4,4,3/5,3/5,2/6,2/6,1>8[2:1]/7,1/7,{4},,,1x/8x,

{8}2x/5x,3,4,2/5,3,4,1bx,,7/4,6,5,7/4,6,5,8bx,,1h[8:1],5h[8:1],2h[8:1],6h[8:1],3h[8:1],7h[8:1],4h[8:1],8h[8:1],5>2[8:1],,8,8,8-5[8:1],,,,7x/4x,6,5,7/4,6,5,8bx,,2/5,3,4,2/5,3,4,1bx,,8x,8,1/7,1/7,2/6,2/6,3/5,3/5,4q5[4:1],,,,,,4x/5x,,1x/6x,8,7,1/6,8,7,1/6-2[8:1],,8-4[8:1],,,,5,5,2/5,,8x/3x,1,2,8/3,1,2,8/3-7[8:1],,1-5[8:1],,,,4,4,7/4,,{16}5hx[8:1]/6hx[8:1],,,5/6,,,4/7,,4/7,,8b,,,,,,4hx[8:1]/3hx[8:1],,,4/3,,,5/2,,5/2,,1b>6[8:7]*q6[8:7],,,,,,{4},,,,7bx-3[8:1]/8bx,1bx-5[8:1],6bx-2[8:1],4bx,

{8}1x/3x,3,3/8,3,7h[4:1]/3-5[8:1],,,,7/8,7,7/1,7,7/2,,4/5,,5/6,7,8,1,2,3,4,5,{4}6b/7b,1b/8b,2b/3b,4b/5b,5b/7b,4b/2b,{8}1bx/8bx,7,6,5,4-7[8:1]/3-7[8:1],,,,8/1,2,3,4,5/6-2[8:1],,1,,3,4,5h[4:3],,6,,7,,8b>4[2:1]*z4[2:1],,,,,,,,B6/B5/B4/B3/Cf,,,,

{8}7,8,1,2,8,1,2,3,4>7[4:1]/5,,6,6,6,,,,2/8,1,2/8-6[8:1],,1-5[8:1],,,,6,5,4,3,2/6-1[8:1],,1bx,,2,1,8,7,1,8,7,6,5<7[8:1]/4,,3>1[8:1],,8-4[8:1],,,,{4}1hx[8:1]/3hx[8:1],2hx[8:1]/4hx[8:1],5hx[8:1]/3hx[8:1],4hx[8:1]/6hx[8:1],5b/7b,4b/2b,B7/B6/B5/B4/B3/B2/Cf,,

{1}1x>4qq7[4:5]/8hx[2:3],,4h[4:7]/7V51[2:1],{4}8h[4:1],,7h[4:1],,{1}2hx[2:3]/6>3pp8[4:5],,{4}7,6,5,4,7V51[8:3]/3V51[8:3],,,,{8}2x/8x,1,2-6-3[8:3]/8h[2:1],,,,,,7x/1x,8,7-3-6[8:3]/1h[2:1],,,,,,2x/8x,1,2/8,,7x/1x,8,7/1,,2x/8x<4[4:1],,1,1,1,,3hx[1:1]/4x,,{4}2x,8,6,4,1x/2x,7/8,5/6,3/4,{8}1x/2x,1/2,3/8,3/8,4/7,4/7,5/6,,{16}3,4,3,4,3,4,3,,{4}2-5[8:1]/5-1[8:1],,

{16}8bx/4bx,,,,6,,4,5,4-8[8:1]*-7[8:1],,,,,,,,{4}7bx/8bx,5bx/6bx,3bx/4bx,1bx/2bx,{8}7,6/8,1x/5x,,2,3/1,8x/4x,,7h[2:1],,8,1,2,,4/5,,{16}1bx/5bx,,,,3,,5,4,5-1[8:1]*-2[8:1],,,,,,,,{4}2bx/1bx,4bx/3bx,6bx/5bx,8bx/7bx,{8}1/2h[4:1],,4,4,4,,1/7,,6bx/8bx,,3bx/1bx,,E8/B8/B1/E2/E1f/A8/D1/A1,,,,{16}3bx/7bx,,6,5,6,,4,5,4-8[8:1]*-7[8:1],,,,,,,,{4}7bx/8bx,5bx/6bx,3bx/4bx,1bx/2bx,{8}7x/8x,6,5,4,3x,2,1,8,5hx[2:1]/7x,,4,4,4-8[8:1],,1,,{16}6bx/2bx,,3,4,3,,5,4,5-1[8:1]*-2[8:1],,,,,,,,3bx/8bx,,2,1,2,,7,8,7-3[8:1]*-4[8:1],,,,,,,,{8}5,6,7,8,1/2,3,4/8,,{16}7,8,7,8,7,8,7,8,6,1,6,1,{4},

{16}2x/5x,,3,4,3,,2/5,,3,4,3,,1bx,,,,7/4,,6,5,6,,7/4,,6,5,6,,8bx,,,,{8}1h[8:1],5h[8:1],2h[8:1],6h[8:1],3h[8:1],7h[8:1],4h[8:1],8h[8:1],5>1[8:1],,8,8,8-4[8:1],,,,{16}2x/5x,,3,4,3,,2/5,,3,4,3,,1bx/8bx,,,,7/4,,6,5,6,,7/4,,6,5,6,,1bx/8bx,,,,2b,1,2,1,2,,7b,8,7,8,7,,3b,4,3,4,3,,6b,5,6,5,6,,4b,5,4,5,4w8[4:1]b,,,,,,,,,,,,{2}1bx>8[4:31]/7bx,,,,,,,,Ch[1:4],E

MASTER

(184)
{8}4,5,{4}3bx/6hbx[1:1],,,{8}4,4,{4}3h[1:1],,,{8}4,4,{4}5h[2:3],,,{8}4,4,{1}3h[1:1],
{1}5qq3[4:3],4p6[4:3],5<2[4:3],{4}Ch[4:3],,,8x,
{2}8b^5[4:1]/1b,2h[4:1],6^3[4:1]/3h[4:1],2h[4:1],{8}2h[4:1]/8hx[4:1],,,3h[8:7]/7x,{4},,5h[4:1],,35,
{16}4x,5x,4x,,45,,2,2h[16:3],,,4,3,5,,7,7h[16:3],,,5,6,4,,2,2h[16:3],,,8,1,7,,3,3h[16:3],,,7,,
2,8,2,8,2,8,2,8,3,7,3,7,4,6,4,6,3,5,3,5,{4}4b,3v5[8:1]/5h[4:1],,

{8}7h[4:1],8,1,2h[4:1],3,4,{16}6,5,7,5,{8}6h[4:1],8,1,2h[4:1],3,4,{16}6,5,7,4,
{8}6x-2[8:1],6,4-8[8:1],4,7-3[8:1],7,1-5[8:1],1,4-7[8:1],4,2-5[8:1],2,1,8,4x/7x,,
2h[4:1],1,8,7h[4:1],6,5,{16}3,4,2,4,{8}3h[4:1],1,8,7h[4:1],6,5,{16}3,4,2,5,
{8}1b,7,46,3,12,3,78,6,{16}3,5,3,5,4,6,4,6,5-1[8:1],7,5,7,{8}5,,

2bx/8hbx[4:1],,3,3x,2h[4:1]/5,4,5h[4:1],3,2-5[8:1],4,5,6,78,16,{16}2,5,3,4,
{8}1hbx[4:1],,6,6x,7h[4:1]/4,5,4h[4:1],6,7x-4[8:1],5,4x,3,1x,1,{16}2,8,2,,
{16}1h[8:1]/7h[8:1],,,5h[8:1]/6h[8:1],,,34,,34,,2,3,2,3,2,,
8h[8:1]/2h[8:1],,,4h[8:1]/3h[8:1],,,65,,65,,7,6,7,6,7,,
{2}4/8hb[4:3],1h[4:1],{4}2-4[8:1]/6-8[8:1],2-8[8:1]/6-4[8:1],26,1b/5b,

{4}2h[8:1]/4,2h[8:1]/4,2h[8:1]/B3,2h[8:1]/A1,7h[8:1]/4,7h[8:1]/4,7h[8:1]/B6,7h[8:1]/A8,
{8}1,1,{16}5,6,7,8,2,3,4,5,8-3[8:1],7,6,5,{4}8b-5[8:1],8b^3[8:1],8b^5[8:1],8b-4[8:1],8bw4[8:1],8b,2b/6b,
{8}74,8,1-5[8:1]/2,,4-8[8:1],,7x,7x,1x,2x,3/4-8[8:1],,1q7[4:1],,7x,6x,{4}5hx[4:1],1h[4:1],
4^1[4:1],1^6[4:1],6^3[4:1],3^8[4:1],8,5,

{16}4,6,3,5,1b,,3,4,2,,17,,17,,6,5,6,,17,,26,,{24}4,5,3,{8}4,26,2V46[16:3]/6,,
5,7,8h[4:1],,5-1-3[4:1],5,8,7,6,5,43,2,34,5,42,1,28,37,
46,{16}7,8,6,,15,,15,,3,4,3,,28,,37,,{24}5,4,6,{8}5,48,37,62,15,
15,{16}2,4,2,4,3,1,3,1,4,8,5,7,4,6,3,5,{4}2bx-6[8:1],2bx/1bx^4[8:1]*^6[8:1],1bx,,

{1}4bhx[4:3]/7bxp3[2:1],4h[4:3]/3p7[2:1],{8}6,,57,5h[8:3]/7h[8:3],,,,,
7,{24}E7,B6,B5,{8}E5,3,,,34,,2,{24}E3,B3,B4,{8}E5,6,,,7,{24}E7,B6,B5,{8}E5,3,,,34,,45,,
7,{24}E7,B6,B5,{8}E5,3,,,{4}34,4hx[2:1]/5,,C,2bx/8bx,
3hbx[1:1]/7bx,,B2/B3,B5/B6,7hbx[1:1],,B7/B6,B4/B3,2hbx[2:1],B4/B5/D5,7hbx[2:1],B1/B8/D1,
2bx,2bx/4bx,4bx/6bx,2bx/8bx,{8}3x-5[8:1],3,5,6,7x-3[8:1],7,3,2,1x-5[8:1],1,5,6,7x-3[8:1],7,2,2,
1/8x,18,78,78,67,56,45,34,{16}3,4,2,5,1,6,8,,{4}2b/7b,

{16}5-7[8:1]/6,4,3,2,{4}1x-5[8:1]/5bx,{16}15,,6,7,{8}84,3,
1/2q6[8:1],8,2/7xp3[8:1],8,7/1x-5[8:1],2,1/6x,7,8/4x,,
{16}3-8[8:1]/4x,,2,1,3,,6,,7-4[8:1]/8x,,6,5,7,,1,,2/4x-8[8:1],,3,5,4,,6,,
5^8[8:1],,{24}1,2,3,{4}4-1[8:1],4x/8-4[8:1],{16}8x/4,,3,2,{8}15,6,
7/8p4[8:1],1,8/2xq6[8:1],3,2x/1x-5[8:1],8,1x/4-8[8:1],3,{4}2/4x,3bx/7bx,
{32}1-5[8:1]/8-4[8:1],27,36,45,,,,,{4}1bx-3[8:1]/8bx-6[8:1],1bx/8bx,4bx/5bxv2[8:1]*v8[8:1],5bx,3bx/7bx,

{16}2/1-3[8:1],8,7,6,{4}5b-1[8:1]/1b,{16}15,,2,3,{8}47,6,
3/5-2b[8:1],4,7/5b-8[8:1],6,3/5b-1b[8:1],4,5b/8bx-4[8:1],7,6/8b,,
{16}5bx/6b-1[8:1],,7,8,6,,3,,1bx/2b-5[8:1],,3,4,2,,7,,5bx/6b-1[8:1],,7,8,6,,3,,
4^1[8:1],,{24}8,7,6,{4}5-8[8:1],1bx-5[8:1]/5,{16}15,,6,7,{8}83,2,
1^6b[8:1]/7,8,1b^4[8:1]/4,2,1b-5b[8:1]/5,7,1b/4bx,3,1b/6b,,
{16}7,8,7,8,6,5,6,5,1,2,1,2,4,3,4,3,7,1,7,1,7,1,7,1,8,8,8,8,{4}1b/7b,

{16}4b/6b,,2,4,2,,16,,7,5,7,,2,1,2,3,2,,7,5,7,,46,,2,8,2,,6,5,6,7,
{8}6b-2[8:1],6,1-5[8:1],1,7-3[8:1],7,1^6[8:1],1,4bq8[8:1],4,1bq5[8:1],1,7b-4[8:1],7,7b/1b,,
{16}3b/5b,,2,4,2,,38,,7,5,7,,2-6[16:1],1,2,3,2b,,7,5,7,,16,,2,4,2,,12,8,7,6,
5b/4b,,3,3,4,,2b/5b,,6,6,5,,7b/4b,,2,2,1,,2b/5b,,7,7,8,,6b/1b,,
2,1,2,1,2,1,{32}2x,3,4,5,6,7,8,1,2x,3,4,5,6,7,8,1,
{48}2bhx[4:15]/B8f,C,B4,A4,,,,,,,,,{1},,,{2},{8},,

36,4,5,4,5,6,6,5,4,5,4,3,3,4,5,3,4,6,6,4,3,3,4,5,6h[4:1],3,4,5,4-8[4:1]/7p1[4:1],{1}47,,,,E

Re:MASTER


  • 追加しました。修正等ありましたらよろしくお願いします。 -- けもがみ (2023-02-06 10:29:30)
  • EXPERT譜面を追加しました。修正等ありましたらよろしくお願いします。 -- Sugar (2026-04-14 22:37:26)
名前:
コメント:

タグ:

+ タグ編集
  • タグ:
最終更新:2026年04月14日 22:37