アットウィキロゴ

Aegleseeker

アーティスト Silentroom vs Frums

BPM BASIC ADVANCED EXPERT MASTER Re:MASTER
234 5 8 12+ 14 -

EXPERT MASTER Re:MASTER
譜面制作者 はっぴー サファ太 vs 翠楼屋 -

BASIC


ADVANCED


EXPERT


MASTER

(234)
{1}4h[1:4]/5h[1:7],,,,,,3h[8:21],,
{2}E4,4h[8:9],E5,5h[8:9],E6,6h[8:9],E6,5h[8:9],E5,4h[8:9],E4,3h[2:3],{1}Ch[1:1],,
1bxs5s1b[4:9]`8x<1[4:9],,,{8}8,8,2,2,7,7,18,,{1}1bx>8b[4:9]`8xz4z8[4:9],,,{8}1,1,7,7,3,3,54,,
{16}6,5,6,5,6,,4,5,4,5h[16:3],{8}4h[8:1],,,{16}3,4,3,4,3,,5,4,5,4h[16:3],{8}5h[8:1],,,
{16}7,8,7,8,7,,1,8,1,8h[16:3],{8}1h[8:1],,,{16}2,1,2,1,2,,8,1,8,1h[16:3],{8}8h[8:1],,,
{16}6,5,6,5,6,,3,4,3,4h[16:3],{8}3h[8:1],,,{16}3,4,3,4,3,,6,5,6,5h[16:3],{8}6h[8:1],,,
{16}7,8,7,8,7,,2,1,2,1h[16:3],{8}2h[8:1],,,{16}7,2,7,2,7,,1x-4b[8:1]`8x-5[8:1],,{4},,6bx,

{16}A3,E4,E5,A5,B2,C,B6,A6,A1,E1,E8,A7,A2,E3,E4,A4,B1,C,B5,A5,A8,E8,E7,A6,
A3,E4,E5,A5,B2,C,B6,A6,A1,E1,E8,A7,A2,E3,E4,A4,B1,C,B5,A5,A8,E8,E7,A6,A3,E4,E5,A5,{4}1bx,,3bx,
{16}A6,E6,E5,A4,B7,C,B3,A3,A8,E1,E2,A2,A7,E7,E6,A5,A8,B8,C,B4,A1,E2,E3,A3,
A6,E6,E5,A4,B7,C,B3,A3,A8,E1,E2,A2,A7,E7,E6,A5,A8,B8,C,B4,A1,E2,E3,A3,A6,E6,E5,A4,{4}8bhx[4:1],1bx,
{16}6,5,6,5,6,,3,5,3,5,3,,24,,,,3,4,3,4,3,,6,4,6,4,6,,75,,,,6,5,6,5,6,,3,5,3,5,3,,24,,,,
2,8,2,8,2,,7,8,7,8,7,,26,,,,7,5,7,5,7,,3,5,3,5,3,,26,,,,3,5,3,5,3,,7,5,7,5,7,,84,,,,
2,8,2,8,2,,7,8,7,8,7,,{1}1xs5[4:1]/6x,{4},3bx/7bx,

{12}6,5,4,6,5,4,6,5,4,{6}6h[6:1],5h[6:1],4h[6:4],,,,5h[6:1],6h[6:1],7,{8},67,,
{1}6-2^5-8[8:5]/5h[8:9],{8},8h[8:3],,,{16}5,4,{6}3,8,7,6,7,6,5,3h[6:1],{12}4,5,
{8}6x,6x-3[4:1],3x,3x-8-5[2:1],,1,,4,,3,3,3h[8:3],,,{4}6,4b/5b,
{12}3,4,5,3,4,5,3,4,5,{6}3h[6:1],4h[6:1],5,{8},3,3,3h[4:1],,1h[4:1],,8,,7,7,
{4}7-4[4:1],4>6[8:5],3h[8:5],,,{8},{12}6,5,4,6,5,4,6,5,4,7,6,5,8,7,6,1,8,7,2,1,8,
{4}3hx[8:3],{16},,4,5,{8}6,3,3,3^6[4:1],,7,7,7,{6}1bx/8bx,1bx/8bx,1bx/8bx,

{16}1x,2x,8x,7x,1x,2x,8x,7x,1,2,8,7,1,2,8,7,1x,2x,8x,7x,1x,2x,8x,7x,1,2,8,7,1,2,8,7,
2x,3x,7x,6x,2x,3x,7x,6x,2,3,7,6,2,3,7,6,2x,3x,7x,6x,2x,3x,7x,6x,2,3,7,6,2,3,7,6,
3x,4x,6x,5x,3x,4x,6x,5x,3,4,6,5,3,4,6,5,3x,4x,6x,5x,3x,4x,6x,5x,3,4,6,5,3,4,6,5,
3x,4x,6x,5x,3x,4x,6x,5x,2bx,3bx,7bx,6bx,2,3,7,6,2,3,7,6,1bx,2bx,8bx,7bx,1,2,8,7,1,2,8,7,
{16}2b,3,4,5,1,8,7,6,{4}4h[4:1],{16}1b,8,7,6,4,3,2,1,{4}5h[4:1],
{16}8b,1,2,3,5,6,7,8,{4}5h[4:1],{16}1b,8,7,6,4,3,2,1,{4}5h[4:1],
{16}2b,3,4,5,8,7,6,5,{4}2h[4:1],{16}7,1,7,1,7,,2,8,2,8,2,,
{8}1hx[16:1],1hx[16:1],1hx[16:1],1hx[16:1],2h[16:1]/8h[16:1],2h[16:1]/8h[16:1],
3h[16:1]/7h[16:1],3h[16:1]/7h[16:1],4h[16:1]/6h[16:1],4h[16:1]/6h[16:1],
5h[16:1]/3-8b[8:1],5h[16:1]/3h[16:1],{1},,,,,,,,

{4}6^4[4:1],3,3,3,3^5b[4:1],5,6,6,6^4[4:1],4,3,3,3^5b[4:1],5,6h[4:1],5,
4h[8:1]/5h[8:1],45,4h[8:1]/5h[8:1],36,3h[8:1]/6h[8:1],27,2h[8:1]/7h[8:1],
1-5[29.25#64:1]/8-4b[29.25#64:1],{1}1h[2:3]/8h[2:3],{4},,,

1x/8x,3bx-7b[8:1]/6bx,{8}7,8^5[8:1],,{24}1,2,3,{4}4,6-2b[8:1]/3,{8}2,1^4[8:1],,{24}8,7,6,{4}5,
3-8b[8:1]/6,{8}6,7^4[8:1],,{24}8,1,2,{4}3,{8}12,38,47,56,47,38,1x/2x,,
{4}4/8-3[8:1],{8}5,4h[4:1],,5,5,3,2-5[8:1]/4,,5,6h[4:1],,5,5,6,
{4}3/7-3[8:1],7/4-8[8:1],4/6-3[8:1],16,{8}12,12,{4}3-8[8:1]/8-4[8:1],38,1x/5x,
1b/6b-1b[8:1],{8}3,2^5[8:1],,{24}21,8,7,{4}6,8/3-8b[8:1],{8}6,7^4[8:1],,{24}78,1,2,{4}3,
5/2-5b[8:1],{8}5,6^1[8:1],,{24}65,4,3,{4}2,{8}34,25,16,78,16,25,34,,
6-1b[8:1],4,3,2^5[8:1],,{24}21,8,7,{4}6,{8}3-8b[8:1],5,6,7^4[8:1],,{24}78,1,2,{4}3,
{1}1V75V36[4:3]/Cf,{8}8,8,6,6,{4}4,35,{1}8-4[2:1],8-4b[2:1],

{16}2b/5b,,3,4,3,,45,,6,5,{8}6,47,38,2^4[8:1],5,2-6[8:1],7,2,5,8b,,
{16}47,,6,5,6,,47,,3,4,{8}3,25,16,7-5b[8:1],8-4b[8:1],7,8,1-5[8:1],2-4[8:1],1,2,
8,8h[8:1],6,6h[8:1],4,4h[8:1],2,2,28,{16}7,3,7,,1,5,1,,{8}26,2b/6b,,
{16}7b,5,7,5,6h[16:1],,2b,4,2,4,3,,25,,,,7b,5,7,5,8h[16:1],,2b,4,2,4,1,,78,,,,
1b,6,2,5,3h[16:1],,6b,5,7,4,8,,12,,,,8,1,8,1,7<1[4:1],2,7,2,{4},8b,
{1}1x-5[2:1]/7x,1-5b[2:1],1pp4b[4:5]*qq6[4:5],,

{8}5-1[8:1],5,1,2,3-7b[8:1],3,4,5,6^3[8:1],7,8,1^6b[8:1],2,3,4b,,
1-5[8:1],1,5,6,7-3b[8:1],7,8,1,2^7[8:1],3,4,5^2b[8:1],6,7,8b,,
7-3[8:1],7,3,4,5-1b[8:1],5,6,7,8^5[8:1],1,2,3^8b[8:1],4,5,6b,,
6-2[8:1],6,2,3,4-8b[8:1],4,5,6,7^4[8:1],8,1,2^7b[8:1],3,4,{4}5b-8[8:1],{1}E4/B4f/E5,{4},
{8}4,,,4,,,4h[16:7],,,2h[8:3],,{16},8h[8:3],{4},6h[4:3],,,5x,
{16}7,5,7,5,7,,1,4,1-3[8:1]*-4b[8:1],4,1,,{4},
{16}8,5,8,5,8,,2,4,2-6[8:1]*-5b[8:1],4,2,,{4},
{12}8,8,2,2,4,4,6,6,8,8-4[16:1],2,2,{1}Ch[1280:1],,,,E

Re:MASTER


  • 追加しました。修正等ありましたらよろしくお願いします。 -- けもがみ (2023-03-09 23:22:31)
  • BPMを修正しました。 -- けもがみ (2026-02-17 09:21:04)
名前:
コメント:

タグ:

+ タグ編集
  • タグ:
最終更新:2026年04月11日 21:12