アットウィキロゴ

411Ψ892(創作譜面:Apricot)

曲名 【re:master】411Ψ892(創作譜面:Apricot)
制作者名 Apricot
音源 https://www.youtube.com/watch?v=Ybe-mpYbNLk
譜面動画
制作者コメント コメントよりmaidata pleaseとのことでこの場を借りて共有します。ありがとうございます(&first=1.04)
BPM EASY BASIC ADVANCED EXPERT MASTER
184 - - - - 14+

EASY


BASIC


ADVANCED


EXPERT


MASTER

(184)
{8},,
{1}1>8[1:2],
,
1>8[4:7],
,
{8}3,4,5,3,4,6,5,4,
6,4,3,5,4,3,5,5,
6,5,4,6,5,3,4,5,
3,4,6,4,5,6,4b,,
{1}2bqq5[4:3]pp8[4:3]/7bpp4[4:3]qq1[4:3],
,
{8}2hx[4:1]/7hx[4:1],,,3hx[8:3]/6hx[8:5],,,,,
5h[2:1],,,,4h[4:1],,{16}3x,2x,1x,,
7x/8x,,56,5hx[8:1]/6hx[8:1],,,7x,8,1x/2x,,34,3hx[8:1]/4hx[8:1],,,2x,1,
6x/8x,,45,4hx[8:1]/5hx[8:1],,,7x,8,1x/3x,,45,4hx[8:1]/5hx[8:1],,,3x/6x,,
1x,4,3,4,2x,5,4,5,3x,6,5,6,4x,7,6,7,
{32}1,2,3,4,5,6,7,8,1,2,3,4,5,6,7,8,{4}1w5[8:1],1b,

{16}2x>5[8:1],,1,,8,,7x>2[8:1],,6,,5,,E4,E6,B2,B7,
1x<6[8:1],,2,,3,,4x>1[8:1],,5,,6,,B6,B3,E8,E2,
{8}6-1[8:1],7,2-5[8:1],3,8-5[8:1],7,4-1[8:1],3,
5<8[8:1],5>2[8:1],,,1s5[8:1],2,3b,,
{16}6x>3[8:1],,7,,8,,1x<6[8:1],,2,,3,,E3,E5,B1,B6,
8x>3[8:1],,7,,6,,5x<8[8:1],,4,,3,,B3,B8,E5,E7,
2b-6[8:1],,2,,2/4b-8[8:1],,4,,1b-5[8:1]/4,,1,,1/7b,,7,,
7,8,6,1,5,2,4,3,{32}8,7,6,5,4,3,2,1,{4}4b/8b,

{8}2h[4:1]/3,4,5,3h[4:1]/4,5,6,4h[8:1]/5,6,
6/7h[4:1],5,4,5/6h[4:1],4,3,{16}45,3,2,1,
{8}7/8h[4:1],6,5,1h[8:1]/8,7,6,1/2h[8:1],8,
1h[4:1]/2,3,4,1/8h[4:1],2,3,{16}45,6,7,8,
1h[8:1]/2h[8:1],,,1h[8:1]/2h[8:1],,,12,,38,,6,1,4,3,5,2,
7h[8:1]/8h[8:1],,,7h[8:1]/8h[8:1],,,78,,16,,3,8,5,6,4,7,
{4}Ch[1:1],,,,
B1/B2/B7/B8,B3/B4/B5/B6,A1/A4/A7/A8/B1/B4/B7/B8/Cf,,

{16}2x>5[8:1]/6x<1[8:1],,,,2x-6[8:1]/6x,,,,2x,,5,4,3,2,1,8,
3xq7[8:1]/7xq3[8:1],,,,3x>8[8:1]/7x<4[8:1],,,,3x-7[8:1]/7x-3[8:1],,,,3x/7x,,,,
1x/8x,,1,2,8,7,6,5,2,3,4,5,1,8,7,6,
{32}4x/5hbx[8:1],3,2,,,,,,5hbx[8:1]/6x,7,8,,,,,,3x/5hbx[8:1],2,1,,,,,,5hbx[8:1]/7x,8,1,,,,,,2x/5wbx1b[8:1],1,8,,,,,,5bx,,,,,,,,
{8}3x-6[8:1]-1[8:1]-4[8:1],,6x,7x,8x-5[8:1],,4-1[8:1],,
7xp1[8:1],,4x-8[8:1],4x,7x>2[8:1]-6[8:1],,6x>3[8:1]-7[8:1],,
2xqq5[4:1],2x,2x,,7x>1[8:1]-5[16:1]-3[16:1],,2x,,
{16}1x,,2,4,3,7,5,6,4,5,4,5,3,6,3,6,2,7,1,8,2b/7b,,,,

1-6[8:1],,8,2,1,,3,,8-3[8:1],,1,7,8,,6,,
18,,{24}18,27,36,{16}45,,27,,1h[4:1]/8,,,,7,,6,,
5h[4:1],,4,,3h[4:1],,4,,5h[4:1],,4,3,2h[4:1],,3,,
4h[2:1],,3,,2,,1,,8w4[8:1],,8,,8b,,,,
5x-2[8:1],,4,6,5,,7,,4-7[8:1],,5,3,4,,2,,
18,,{24}18,27,36,{16}45,,27,,1/8h[4:1],,2,,3,,4,,
5q1[8:1],,5,,2q6[8:1],,2,,7q3[8:1],,7,,1-5[8:1],,,,
1b>4[8:1]*<6[8:1],,,,1wb5[8:1],,,,1b,,,,7,3,8,2,

1h[2:1],,,,B5,,,,3h[2:1],,,,B7,,,,
5h[4:3],,,,B1,,B2,B3,B4,,,,B5,,,,
B6,,,,7s3[4:1],,7h[8:3],,,,,,,,,,
6,,{24}D6,A5,D5,{16}A4,,3<6[4:1],,,,6,,6,,,,
8h[4:3],,{24}A7,D7,A6,{16}D6,,,,C,,,,1h[4:3],,{24}A2,D3,A3,
{16}D4,,,,C,,,,8,,7,,6,,5,,
4h[2:1],,{24}A3,D3,A2,{16}D2,,,,8h[2:1],,E8,,E7,,E6,,
4h[4:3],,,,,,,,5h[4:1],,,,,,,,

2x-5[8:1]-3[8:1]-6[8:1],,,,1,,1,,8,,,,7,,,,
7x-4[8:1]-6[8:1]-3[8:1],,,,8,,8,,1,,,,2,,,,
1Vx35[8:1],,,,4,,,,8Vx64[8:1],,,,5,,,,
2x-6[8:1],,,,1x-5[8:1],,,,8x-4[8:1],,,,7b,,,,
4b/5b,,4,3,,3,2,,4b/5b,,5,6,,6,7,,
4b/5b,,2,1,,1,8,,4b/5b,,7,8,,8,1,,
5b,4,5,4,6b,3,6,3,7b,2,7,2,8b,1,8,1,
8,8,8,8,8w4b[8:1],8,8,8,8,,,,1x/5x,26,37,48,

1x<6[8:1]/5x,,4,4,1-5[8:1],,3,3,1<6[8:1],,2,2,1>4[8:1],,2,,
1x/5x<8[8:1],,6,,1x-5[8:1]/5x,,2,,1x/5x,,6,,3x/7x,,,,
7/8>3[8:1],,7,,{24}78,6,5,{16}4,,7<4[8:1]/8,,8,,{24}78,1,2,{16}3,,
7<4[8:1]/8,,6,,7/8>3[8:1],,1,,7/8-4[8:1],,{24}5,6,7,{16}18,,2,,
3-5[8:1],,7,7,3-7[8:1],,6,6,3-1[8:1],,5,5,3-6[8:1],,6,,
3x/7x-2[8:1],,8,,3x-6[8:1]/7x,,4,,3x/7x,,,,1x-5[8:1]/8x-4[8:1],,,,
18,,,,{32}2v5[8:1]/6v1[8:1],3,4,5,6,7,8,1,{16}26,,,,3-5[8:1]/7-1[8:1],,,,
3b-1[8:1]/7b-5[8:1],,,,3b/7b,,,,2b/6b,,,,4x/8x,37,26,15,
4x/8x>3[8:1],,5,4,8-4[8:1],,5,6,8>3[8:1],,7,6,8<5[8:1],,5,,
4b>1[8:1]/8b,,3,,4b/8b-4[8:1],,7,,4b/8b,,3,,2b-6[8:1]/6b,,,,
1/2>5b[8:1],,1,,{24}1-5[8:1]/2,8,7,{16}6,,1<6b[8:1]/2,,2,,{24}12,3,4,{16}5,,
1/2>5[8:1],,3,,1<6[8:1]/2,,8,,1-5[8:1]/2,,{24}4,3,2,{16}18,,7,,
6>3[8:1],,2,1,6<1[8:1],,2,2,6-2[8:1],,2,3,6,,4,,
{32}5,6,7,8,1,2,3,4,1v4[8:1]/5v8[8:1],6,7,8,1,2,3,4,{16}1b/5b,,,,2b/7b,,,,
3,4,2,6,5,7,1,3,2,8,6,7,4,5,3,6,
1,2,8,7,2,3,7,6,{32}3,4,5,6,7,8,1,2,{16}3b/7b,,,,

{16}6x<1[8:1],,5,,46,,3x<6[8:1],,2,,13,,B8/E8,B1/E2,B6/E7,B3/E3,
5x>2[8:1],,6,,57,,8x<5[8:1],,1,,28,,B2/E3,B7/E7,B4/E4,B5/E6,
{8}2-5[8:1],3,6-1[8:1],7,4-1[8:1],3,8-5[8:1],7,
1>4[8:1],1<6[8:1],,,5s1[8:1],6,7b,,
{16}2bx<7[8:1],,3,,24,,5bx>2[8:1],,6,,57,,B7/E7,B8/E1,B4/B5,B2/B3,
4bx<7[8:1],,3,,24,,1bx>4[8:1],,8,,17,,B6/B7,B4/B5,B1/E1,B2/E3,
Cf,,12,38,47,,Cf,,18,27,36,,Cf,,78,16,
25,,Cf,,18,27,36,,1,5,8,4,{24}7,3,7,3,7,3,48,15,26,37,48,15,{32}2-6[8:1]/6,3,4,5,6,7,8,1,

{1}2b/6<6[4:13]*>6[4:13],
,
,
,
{8}B6,E2,E1,B4,E6,E3,B8,A1,
E7,E4,D6,B5,A7,B2,E5,A3,
E8,B1,D5,B3,A8,E2,D7,C,
45,45,36,36,27,27,1-5b[8:1]/8p2b[8:1],18,
{1},
,
,
,
E


名前:
コメント:

タグ:

+ タグ編集
  • タグ:
最終更新:2023年03月28日 00:03