BASIC
ADVANCED
EXPERT
(145)
{16}3x,,,3x,,,2hx[8:3]/4x,,{4},3>6[2:1],{1},
{16}6,,,6,,,7h[8:3]/5,,{4},6<3[2:1],{1},
{16}4x/6x,,,4x/6x,,,3hx[4:1]/7hx[4:1],,{4},3^6[4:1]/7^2[4:1],,,
{2}1h[4:1]/5h[4:1],8h[4:1]/4h[4:1],5h[4:1]/7h[4:1],{4}4h[4:1],5h[4:1],
{8}4,5,3bx/6bx,,{16}2,,,2,,,{8}35,{2}3-5[8:1]/5h[4:1],
{8}7,6,5,4,6,5,4,3,{4}2^5[4:1]/5^8[4:1],,,58,7^4[4:1]/4^1[4:1],,,41,
{16}2,,,2,,,2,,{2}3h[4:1]/6-4[8:1],{8}2,3,4,5,3,4,5,6,
{4}7^4[4:1]/4^1[4:1],,,41,8,8,17,26,
(147)
3h[2:1]/5,{8},4,4h[2:1],,,3,3h[2:1],,,5,5h[2:1],,,6,6h[8:3],,,
7,7h[2:1],,,8,8h[8:3],,,7,{2}7h[2:1],5-3[4:1],5-2[4:1],5-1[4:1],5-8[4:1],{4}1b,
{8},18,{12}2h[6:1],,4,4h[6:1],,5,5h[6:1],,7,7h[6:1],,2,2h[6:1],,4,4,,,
{16}34,,,34,,,4/6h[16:3],,,5,,,E3/B3/B7/E8,,,,
65,,,65,,,5/3h[16:3],,,4,,,E7/B6/B2/E2,,,,
78,,,78,,,8/2h[16:3],,,1,,,{2}8<1[4:3]/3,{4},,,
(148)
,{8}E4,B4,E5,B5,E6,,
(149)
{4}2^7[4:1],{8},5,5,,6,6h[8:3],,,5,5,5h[4:1],,7,,
4h[4:1]/6h[4:1],,,4h[4:1]/6h[4:1],,,3x/5x,3x/5x,,,E4,B4,E5,B5,E6,,
7h[4:1],,,7h[4:1],,,56,{2}5h[2:1]/6h[2:1],{8},5x/6x,,45,,
(148)
3,3h[4:1],,4,,23,,1h[8:5],,,4,4,5,5,
{4}16,37,37,37,37,47,47,57,57,
7/E5,7/E4,7/E3,7/E2,7/E1,7/C,7/E5,7,
62,62,62,62,52,52,42,42,2/E5,2/E6,2/E7,2/E8,2/E1,2/C,2/E5,2,
{1}2b^7[4:3],6^3[4:3],2^7[4:3],6^3[4:3],1^6[4:3],5^2[4:3],1^6[4:3],Ch[4:3],{2},
{6}5h[6:1],6h[6:1],7h[6:1],8h[6:1],1h[6:1],2h[6:1],
4h[6:1],3h[6:1],2h[6:1],1h[6:1],8h[6:1],7h[6:1],
1h[6:1],2h[6:1],3h[6:1],4h[6:1],5h[6:1],6h[6:1],
4h[6:1],3h[6:1],2h[6:1],1h[6:1],8h[6:1],7h[6:1],
5h[6:1],6h[6:1],7h[6:1],8h[6:1],1h[6:1],2h[6:1],
4h[6:1],3h[6:1],2h[6:1],1h[6:1],8h[6:1],7h[6:1],
5h[6:1],6h[6:1],7h[6:1],8h[6:1],1h[6:1],2,
{8}12,,1,1,8-4[8:1],8,2,,1b,,3-1[8:1]/5-7[8:1],35,,,8-4[8:1],8,,,35,35,35,,
1x-5[8:1],1,8,,6-8[8:1]/4-2[8:1],64,,,1-5[8:1],1,8,,46,46,3x/7x,37,{2}3x/7x-3[8:1],
{8}2-8[8:1]/4-6[8:1],24,,,7-3[8:1],7,,,24,24,24,,{2}1-5[8:1]/5,5^2[8:1]/7,{4}8h[4:1],
{12}1,1,1,8,8,8,{4}2,3-7[8:1]/6,,{8}6^4[8:1]/8^2[8:1],68,,,3-7[8:1],3,,,
6x/8x,68,68,,{2}4/6x-2[8:1],{8}3^5[8:1]/1^7[8:1],31,,,6-2[8:1],6,,,
13,13,13,,{2}3^5[8:1]/5-8[8:1],7^1[8:1]/1-4[8:1],3^5[8:1]/5-8[8:1],{4}1x,1,8,
(140)
{6}2h[6:1]/6,4h[6:1],6h[6:1],8h[6:1],2h[6:1],4h[6:1],3h[6:1],1h[6:1],7h[6:1],5h[6:1],3h[6:1],8hb[12:11],
{4},{24}B4,B5,,,,,{4},
{16}1,8,1,8,1,8,1,8,2,7,2,7,2,7,2,7,3,6,3,6,3,6,3,6,4,5,4,5,{4}4h[4:1],{1}Cf,,,,E
MASTER
(145)
{16}2-5[8:1]/4,,,6,,,{8}7h[4:1],,5,{16}4,6,4,6,3,5,3,5,3,5,4,6,
{8}4h[8:3],,,5,{16}6,,,5h[16:9]/7h[16:9],{2},{8},4,
{1}3h[1:1]/5pp4[2:1],{16}5,,,45,,,{8}46,,,{16}6,4,6-1[8:1],4,
{8}6h[8:3],,,4-8[8:1],4h[8:3],,,7-4[8:1],7h[8:3],,,3-8[8:1],3h[8:3],,,
6qq1[8:3],{4}6h[4:3],,,1b,{16}25,,,34,,,{8}24,{2}2h[4:1]/4-8[8:1],
{16}8h[16:3],,,4,,7,5,6,4,4,3,3,2,2,1,1,8,,,46,,,
{8}3-6[8:1]/7,3h[4:1]/7,,,7-2[8:1]/3,7h[4:1]/3,,,3^6[8:1]/7,{2}3h[4:1]/7,
{16}47,,,56,,,{8}57,{2}5-1[8:1]/7h[4:1],
{16}1h[16:3],,,4,,2,4,3,5,5,6,6,7,7,8,8,1,,,53,,,
{8}26,{4}2/6^3[8:1],6/1-4[8:1],1/8-5[8:1],8/6-2[8:1],6/4-1[8:1],4/8b,
(147)
{16}3,,,3,4<8[4:1],,3,,,3,,,{4}3,{16}6,,,6,5>1[4:1],,6,,,6,,,{4}6,
{16}3,,,3,8<4[4:1],,3,,,3,,,{4}3,{16}6,,,6,1>5[4:1],,6,,,6,,,{4}6h[4:1],4,
{8}2,2,{16}3,4,3,4,3,,2,4,2,4,2,4,2,,1,4,1,4,1,4,1,,8,4,8,4,8,4,8,4,8,4,
1-5[8:1],,,8,1^4[8:1],,,8,1-6[8:1],,,5,1-4[8:1],,,5,1-5[8:1],,,8,1qq4[2:1],,,8,
{4}1,,5,{8}8qq5[2:1],8,{16}5,,,4,,,3,,,2,,,{8}1pp4[2:1],1,{16}4,,,5,,,6,,,7,,,
{8}8-4[8:1],8,3,3,2,2,{16}1,4,1,4,2b,5b,4b,7b,
(148)
{8},,A6,E7,B4/B5,E3,A3,,
(149)
1h[4:1]/2h[4:1],,,2h[4:1]/3h[4:1],,,34,3h[4:1]/4h[4:1],,,
4/5^8[8:1],45,{4}4^1[8:1]/5,4/8^5[8:1],1h[4:1]/8,{8}4,1h[4:1]/4h[4:1],,,
25,2h[4:1]/5h[4:1],,,D6,D5,D4,E3,B4,B5,E7,,
78,7h[4:1]/8h[4:1],,,67,{2}5h[8:3]/6h[8:3],{8}45,
{4}4^1[8:1]/5,5^8[8:1]/4,
(148)
1^4[8:1]/5,{8}8,8h[4:1],,,57,5h[4:1]/7h[4:1],,,
E6,E5,E4,1b,{4}8b-4[8:1],3,{8}3,4,3/4h[4:1],,3,5,15,,
1/6-4[8:1],7,1/6-8[8:1],,16,,48,,46,6h[4:1],4,,47,7h[4:1],2,,
2/8-4[8:1],7,2/8-5[8:1],,28,,46,,56,5h[4:1],6,,46,3h[4:1],8,,8,4,
5-1[8:1]/8,6,58,,51,,25,2h[4:1],5,,
3-6[8:1]/5,,3-1[8:1]/7,,3-5[8:1]/7,,3-8[8:1]/7,,3qq5[4:3]/7,,{1}5b,
{8}7,6,5,6,{2}4,{8}2,3,4,3,4,5,4,5,46,7,6,5,46,,,5,4,3,3,{2}24,
{8}4,5,6,6,{2}57,{8}5,5,4,3,{2}26,{8}4,4,5,6,6,35,4,3,3h[8:3],{2},
{24}4h[12:1],,,,4h[12:1],,,,4h[12:1],5,,,4h[12:1],,,,4h[12:1],,,,4h[12:1],5,,,
5h[12:1],,,,5h[12:1],,,,5h[12:1],,,,5h[12:1]/4,,,,5h[12:1],,4,,5h[12:1],,,,
4h[12:1]/5,,,5,4h[12:1],,,,4h[12:1],5,,,4h[12:1],,,,4h[12:1],,,,4h[12:1],5,,,
5h[12:1],,,,5h[12:1],,4,,5h[12:1],,,,5h[12:1]/4,,,,5h[12:1],,4,,5h[12:1],,,,
3h[12:1],,,,3h[12:1],,,,3h[12:1],4,,,3h[12:1],,,,3h[12:1],,,,3h[12:1],4,,,
6h[12:1],,,,6h[12:1],,,,6h[12:1],,,,6h[12:1]/5,,,,6h[12:1],,5,,6h[12:1],,,,
4h[12:1]/5,,,5,4h[12:1],,,,4h[12:1],5,,,5h[12:1],,,,5h[12:1],,,,5h[12:1],4,,,
{8}45,,5,46,37,28,1w5b[8:1],,1bx,,37,8,1^6[8:1],,1/5-1[8:1],3,5/2^5[8:1],,
26,7,84,{16}7,5,{8}3-6[8:1],2,37,,7,8^3[8:1],,8/5w1[8:1],6,5,,37,37,6,2,{16}2,8,
{8}6-2[8:1],7,5^8[8:1],,25,1-5[8:1],,1/4^1[8:1],3,47,,7,8-4[8:1],12,3^8[8:1]/8,2,
3/6-2[8:1],5,6/1V35[8:1],,16,7h[4:1],,5,4,3,{12}7b/2,8,1,7b/2,8,1,7bp3[8:1]/2,8,1,{8},,
1b,,26,1,8^3[8:1],,8/4-8[8:1],6,7^4[8:1]/4,,37,2,15,{16}2,4,{8}6-3[8:1],7,62,,
2,1^6[8:1],,1/4^1[8:1]*-7[8:1],3,4qq1[8:3],,4,8,8,8,{16}7,1,{8}3-7b[8:1],2,
3/4^1[8:1],,47,8-4[8:1],,8/5^8b[8:1]*-2b[8:1],6,5,,1,1-5[8:1],78,1/6^1[8:1],7,36,,
(140)
{12}D3/E3/B3/B4/E4f/E5/D5,1,1,7,7,7,D7/E7/B6/B5/E6f/E5/D5,8,8,2,2,2,
D3/E3/B3/B4/E4f/E5/D5,1,1,7,7,7,D7/E7/B6/B5/E6f/E5/D5,8,8,2,2h[12:5],,
{4},{24}E4,E5,E6,,,,{4},{16}8,1,2,3,4,5,6,7,
{24}1,8,1,8,1,8,1,8,1,8,1,8,1,7,1,7,1,7,1,7,1,7,1,7,1,6,1,7,1,8,{4}1w5[8:1],{1}1b,,,,E
Re:MASTER
- 追加しました。修正等ありましたらよろしくお願いします。 -- けもがみ (2023-03-28 01:00:41)
- BPMを修正しました。 -- けもがみ (2026-05-20 05:33:50)
最終更新:2026年05月20日 05:33