BASIC
ADVANCED
EXPERT
MASTER
(190)
{8}37,{16}6,5,,3,{4}4-8[8:1],1^4[8:1],1/8x,{16}6,5,6,,
{4}7-3[8:1],7/1-5[8:1],{8}15,{4}6hb[16:15],,,{16},,,
Ch[16:7],{8},,,{16}E8,E7,{4}E6,1,
{8}2h[16:3]/8h[16:3],,,3,4h[16:3]/6h[16:3],,,57,5h[16:3]/7h[16:3],,,5,
{16}46,46,,,35,35,,,{12}2,4,3,7,5,6,2,4,3,
{16}6,5,6,5,6bhx[4:1],,,,5,7,5,7,5bhx[4:1],,,,8,5,8,5,8bhx[4:1],,,,
6,7,6,7,6,7,6,,7/5bhx[4:1],,,,6,4,6,4,5bhx[4:1],,,,4,6,4,6,5bx,,,,
4^1b[8:1],5,4,5,{4}4^7b[8:1],4-8b[8:1],4,1x/7x,3hb[4:1]/5b,
{16}4,2,4,2,3hb[4:1],,,,2,4,2,4,3hb[4:1],,,,4,2,4,2,5,3,5,3,
{8}5h[4:1],,4^2[8:1],,6,7^1[8:1],,5,5,4,3,{16}2hx[8:1]/6hx[8:1],,,2x/6x,{8},
1^7[8:1],,3,{4}4^2[8:1],6h[4:1],1q5V72[8:5],{4}5b,,,{8},
{16}A3,E4,E5,A5,{2},{4}D6/A6,{16}A3,E4,E5,A5,{2},{4}D6/A6,
{16}A3,E4,E5,A5,{2},{4}B5/A6/D7,4h[4:3]/B7/E8,,,5,
{16}A4,E5,E6,A6,E4,B4,B6,E7,A3,B3,B7,A7,{4}B1/C,
{16}A5,E5,E4,A3,E6,B5,B3,E3,A6,B6,B2,A2,{4}B8/C,
{8}1h[16:3],,,35,3h[16:3]/5h[16:3],,,4,4,6,6,{2}7^4[8:1]/8p3[8:1],{16},,
2,4,2,4h[16:9],,,,,{2}5h[2:1],{16}6,5,6,5h[16:9],,,,,{2}7h[2:1],
{16}8,7,8,7h[16:13],,,,,{4}1,{1}1>6[2:1],
{8}8,8,{4}1x/2x,56,78,{8}34,{4}3/4-6[8:1],2-4[8:1],4,5-7[8:1],4h[4:1],
{8}8-4[8:1],8,1h[4:1],,3-7[8:1],3,2x,,8,7,6,,28,28,,
{16}8,7,6,5,1,2,3,4,6,7,8,1,4,3,2,1,7,6,5h[8:1],,1,2,3h[8:1],,8,7,6h[8:1],,
4,5,4,5,4,3,2,1,5,6,7,8,2,3,4,5,1,8,7,6h[16:3],,,5,,,78,,,34,,,12,,,46,,
46,3,2,1,7,6,5,4,8,1,2,3,8,7,6,5,1,2,3,4,51,48,37,26,{4}1b/5,{16}7,8,7,8,
{4}6^3[4:1],3^8[4:1],8V64[4:1],4^1[4:1],1^6[4:1],6^3[4:1],3,{2}2w6[8:1],{4}48,
{8}7h[8:1],3,7h[8:1],4h[16:1],7h[8:1],4h[16:1],7h[8:1],4h[16:1],7h[8:1],5,
7h[8:1]/5-1[8:1],,6,,28,,3h[8:1],5,3h[8:1],4h[16:1],3h[8:1],4h[16:1],
3h[8:1],4h[16:1],3h[8:1],4,34,{24}4,3,5,{8}2^7[4:1],,,{16},6,{8}6^3[4:1],,,
{16},2,{4}2h[4:1],4,{24}3,,4,3,5,,{8}6,6,6hx[4:1],,5,
7V51[4:1],,2,1,8-4-2[4:1],,7,6,5V73[4:1],,2,3,4-8-2[4:1],,5,6,
7V15[4:1],,4,5,6-2-4[4:1],,7,8,1-5[8:1],,4,4,,
1bx/6bx,{1}1bx-5V74-2[4:3]/6bhx[4:7],{2},{8}1b,,5,
8bx/3bx,{1}8bx-4V25-7[4:3]/3bhx[4:7],{2},{8}8b,,5,4bx/5bx,,
{8}5h[16:1]/6h[16:1],56,5h[16:1]/6h[16:1],56,4h[16:1]/7h[16:1],47,
5h[16:1]/6h[16:1],56,{4}47,5-3[8:1]/6,57,2bx/5bx,
{24}3,5,3,5,,,6,4,6,4,,,3,5,3,5,,,6,4,6,4,,,
{4}2^5[8:1]/8^5[8:1],2x/8x,E4/B4/B5/B6/E7,1b/8b,
{16}1,8,1,8h[8:1],,2h[8:1],,1,2,,37,,8,2,8,2,1,2,1,2,3,2,4,2,5,2,6,2,{4}7b,
{16}6,4,6,4h[8:1],,7h[8:1],,8,7,,26,,1,7,1,7,8,7,8,7,6,7,5,7,4,7,3,7,
{8}2bx-5[8:1],,6,6q1[16:7],,4,{4}4hx[2:1],,8h[4:1],6,{8}57,57,,35,
3h[4:1]/5,,2,4,6,8hx[8:3],,6,6,6,7h[4:1]/5,5,5,5,6h[4:1]/4,4,4,4,
45,36,27,{16}1,8,1,8,1,8,2,8,1,8,1,7,1-6[8:1],8,2,8,1b,,{1},
{2}1h[4:1]/7h[4:1],{8}26,2-7b[8:1]/6-3b[8:1],,2b/6b,,
{16}1,6,2,5,3,4,1,8,1,8,2,5,3,4,1,7,1,7,3,5,4,6,2,8,2,8,3,7,{4}5b,
{16}6,6,4,3,2,1,85,6,7,8,15,4,3,2,18,7,6,5,4-8[8:1]/3,2,{8}1-5[8:1],4,1,,4b/6b,,
{16}2x,1,3,8,4,7,5,6,5,6,3,7,2,6,1,5,1,5,2,4,2,4,3,3,5,5,4,4,{4}6h[4:1],
{32}2x,3,4,5,2x,3,4,5,2x,3,4,5,1x,2,3,4,1x,2,3,4,1x,2,3,4,
{4}5bx-1[8:1],7-4[8:1],78,2>7[24:5],2/5h[4:1],{24}1,2,3,{4}4b-8V25[8:3],5,
{8}7,{4}7-1[8:1],2-6[8:1]/7-4[8:1],27,25,{8}6,
1,{32}1,2,3,4,E2,E3,E4,E5,{8},7,{32}7,6,5,4,E7,E6,E5,E4,{8},1x/2x,
{16}3,8,3,8,4,7,5,6,4,7,4,7,{4}5hbx[4:1],{16}7,7,5,5,6,6,3,3,4,4,2,2,8,8,
1,7,2,6,3,5,4,6,3,7,2,8,1,,{4}2bhx[4:1]/8bx,
{32}7x,6,5,4,7x,6,5,4,7x,6,5,4,8x,7,6,5,8x,7,6,5,8x,7,6,5,
{8}4bx^1[8:1],,7,7-4[8:1],,78,1^6[8:1],,
1b/5hb[8:11],{4},,,6,,6,8,{8}1b/7b,2hb[8:11]/6b,{4},4,,4,,4,
{8}3b/5b,2b/6b,1b/7b,1b/7hb[4:1],,5,
{4}5-3[8:1],5/7-5[8:1],5/7-3[8:1],71,2-5[8:1]/4-8[8:1],24,
{8}1bx/7bx,7bx/1hbx[4:1],,4,
{4}4-6[8:1],4/2-4[8:1],4/2-6[8:1],28,7-4[8:1]/5-1[8:1],75,
{8}8bx/2bx,8bx/2hbx[4:1],,
{16}8,8,3,3,4,4,5,5,7,7,8,8,{4}1bx/7bhx[4:1],
{16}1,1,6,6,5,5,4,4,2,2,1,1,{4}8bx/2bhx[4:1],
{32}7x,6,5,4,7x,6,5,4,7x,6,5,4,8x,7,6,5,8x,7,6,5,8x,7,6,5,
8x,1,2,3,8x,1,2,3,8x,1,2,3,8x,7,6,5,8x,7,6,5,{8}4bx,,26,26,
{16}3,5,3,5,4,5,4,5,
{24}4,3,2,18,7,6,53,2,1,87,6,5,{32}41,8,7,6,51,48,37,26,
{4}1b/5b,{16}2b/8b,,,4b/6b,,,{8}7hb[8:27]/Ch[16:6],,,
{24}B1/B8,E1,A1/D1f/A8,,,,{1},{4},{16},,3,2,{1}1h[4:5],{2},
{16}8bx,3,5,1bxw5b[8:1],6,4,{1}A1f,,,,E,
Re:MASTER
- 追加しました。修正等ありましたらよろしくお願いします。 -- けもがみ (2023-03-28 16:31:19)
最終更新:2026年03月29日 14:04