BASIC
ADVANCED
EXPERT
MASTER
(190)
{2},{4},{8},{16},{32}2,3,
{4}4h[1:1],5,6,{16}7,,,{32}8,7,{4}6h[1:1],{4},3,4,5h[1:1],,,3,{1}4h[1:1],8b-4[2:1],
{8}2x-5[8:1]/6x,,28,1x-6[8:1],,13,2x-5[8:1],,2x/7x-4[8:1],,71,8x-3[8:1],,68,7x-4[8:1],,
7x/2x^5[8:1],,28,1x^6[8:1],,13,2x^5[8:1],,2x/7x^4[8:1],,17,8x,,1,2x/8x,,
3bh[4:1]/4bh[4:1],,,25,16,{24}7,8,7,{8}8,6,5h[4:1]/6h[4:1],,,{16}8,7,{8}6-3[8:1],,3,,
2h[4:1]/1h[4:1],,,38,47,{24}6,5,6,{8}5,4,3h[4:1],4,5h[4:1],4,3,{24}1,8,1,{8}8,7,
7bh[4:1]/8bh[4:1],,,61,52,{24}3,4,3,{8}4,5,5h[4:1]/6h[4:1],,,{16}8,7,{8}6-3[8:1],,3,,
2h[4:1]/1h[4:1],,,3,4,5,63,,{16}7,5,7,5,7,4,7,4,7,3,7,3,{8}7,28,
{2}3b/7b>3[2:1],3<7[2:1],7V13[2:1],3V57[2:1],
{4}7-3[4:1],8h[8:1],1h[8:1],2>6[2:1],1h[8:1],8h[8:1],7,,
{2}2<6[2:1],6>2[2:1],2V86[2:1],6V42[2:1],
{4}2-6[4:1],1h[8:1],8h[8:1],7<3[2:1],{8}1,2,3q7[4:1],2,{2}1-4[8:1],
{8}5x/6x,,78,,34,3,12,,56,,78,,34,3,12,2,18,,76,,54,,32,,
1h[8:1],8h[8:1],7h[8:1],6h[8:1],5h[8:1],4h[8:1],3h[8:1],2h[8:1],
{4}1-6[8:1],18,7/5-2[8:1],45,3/1v6[8:1],18,7/5v2[8:1],54,
{8}1-5[8:1],8,7,6,5x/4x,3,2,1h[8:1]/4h[8:1],,25,36,47,{2}5b-1[8:1]/8b-4[8:1],
{4}2x/6hx[2:5],,,{16},,E3,E4,{4}E5,{16},,E2,E1,{4}E8,{16},,E3,E4,{2}E5,7^2[4:3],6q3[4:1],,
{4}7x/3hx[1:2],{16},,E8,E1,{4}E2,{16},,E7,E6,{4}E5,{16},,E8,E1,{2}E2,{8}4h[8:5],,,
{16}2,1,8,7,6,5,4,3,2,1,{2}8hx[4:3]/5x,7-3[8:1],{4}1x-5[8:1]/5x,7,8-4[8:1]/4,2,
{4}1q5[8:1]/5,7,8p4[8:1]/4,{8}2,1,{4}2x-6[8:1]/6x,8,7-3[8:1]/3,1,2q6[8:1]/6,8,37,
{8}56,4,{4}3x/5x-2[4:1],2-7[4:1],7-4[4:1],4-1[4:1],1x^6[4:1],6^3[4:1],3^8[4:1],8^5[4:1],
{8}5,4,3,2,1b/5b,2b/6b,3b/7b,4b/8b,{1}5bV31[2:1]/1bV75[2:1],
{4}5/4^1[8:1],4/6-2[8:1],6/8^3[8:1],8/4-1[8:1]*-7[8:1],4,{8}7x/8x,6,54,3,21,8,
{4}7/1^4[8:1],1/7-3[8:1],7/5^2[8:1],5/1-4[8:1]*-6[8:1],1,{8}6x/5x,7,81,2,34,5,
{8}1x^6[8:1]/6x,,1b/2b,{16}3,3,{4}4-7[8:1],4b/5b,
{8}8x^3[8:1]/1x,,8b/7b,{16}6,6,{4}5-2[8:1]*-1[8:1],5b,
{8}2x/4x,3,57,6,14,3,58,6,24,,5qq1[8:3]/6,7,{2}8-6[8:1],
{8}4-8[8:1]/2,2,2,2,1-5[8:1]/2,2,2,2,4-8[8:1]/6,6,6,6,7-2[8:1]/6,6,6,6,
3/7b,3,3/4b,3,3/2b,3,3/6b,3,8b-6[8:1]/3,3,8-2[8:1]/3,3,8-5[8:1]/3,3,38,,
{32}1bx/7hx[4:1],2,3,4,{4}5,{32}8bx/2hx[4:1],7,6,5,{4}4,3bx/6bx,
{32}1bx/7hx[4:1],2,3,4,{4}5,{32}8bx/2hx[4:1],7,6,5,{4}4,1bx/8bx,{1}5b/4bqq4[4:3],{2},
{16}1,2,3,4,5,6,7,8,{8}1x/5x,,,78,7,56,4,35,,
2h[8:1],4h[8:1],3h[8:1],5h[8:1],4h[8:1],6h[8:1],5h[8:1],8,,,
71,2,13,8,71,{16}D7,A6,D6,A5,D1,A1,D2,A2,7,6,5,4,3,2,1,8,{8}73,,,
18,2,34,2,18,,78,{4}1-5[8:1]/6,1/6-2[8:1],36,
{8}4h[8:1],6h[8:1],5h[8:1],6h[8:1],7h[8:1],6h[8:1],8h[8:1],6h[8:1],
1,1h[8:1],3,3h[8:1],5,5h[8:1],7,7h[8:1],1x^7[8:1],,6,6,5-1[8:1],5,4-2[8:1],4,8,7,6,
{24}5,4,5,{8}3h[8:3],,,{16}7,1,{8}7xv2[8:1],,3,3,4-8[8:1],4,5-7[8:1],5,1,
{24}1,2,3,{8}48,7,{2}6-4[8:1]/3-7[8:1],{8}5bx/8bx>4[4:1],,5,7,1bx<5[4:1],,
{16}4,3,2,1,{8}8bx>4[4:1],,5,7,1bx,,{16}74,3,2,1,8bx,6,8,6,8,6,8,6,8,4,8,4,8,4,8,4,
{32}1bx,2,3,4,5,6,7,8,1,2,3,4,5,6,7,8,{2}1-5[8:1]/5bx,
{1}3x/7hx[2:7],,8h[2:7],,1h[1:2],,{8}2h[8:5],,,{16}8,7,6,5,4,3,2,1,8,7,{1}6bx^1[2:1]/2bx^5[2:1],
{4}4x-8[8:1]/8x,6,5-1[8:1]/1,3,4p8[8:1]/8,6,5q1[8:1]/1,{8}3,4,
{4}3x-7[8:1]/7x,5,6-2[8:1]/2,4,3p7[8:1]/7,5,18,{8}56,45,
{4}4x/3x-6[4:1],6-1[4:1],1-4[4:1],4-7[4:1],7x^2[4:1],2^5[4:1],5^8[4:1],8^3[4:1],
3xq7[4:1],7q3[4:1],3V57[4:1],7V13[4:1],3x<7[4:1],7>3[4:1],3-7[8:1],7,
5-1[8:1],56,4-8[8:1],43,5-2[8:1]/6-1[8:1],56,4-7[8:1]/3-8[8:1],43,
{16}1x,5,1,5,1,5,1,5,1b,6,2b,7,3b,8,4b,1V75[16:9],{1}5bV31[2:1],
2-5[4:5],7-4[4:5],3-8[4:5],6-3[4:1],
{4}4/5-2[8:1],5/D7f/B6/B7,8/1-6[8:1],1/D3f/B2/B3,4/5-2[8:1],5/D7f/B6/B7,8/1-6[8:1],1/D3f/B2/B3,
{8}5x/7x,6,24,3,58,6,14,3,57,,4pp8[8:3]/3,2,{2}1-3[8:1],
{8}2x/6x,26,16,16,86,{16}86,1,{8}26,26,37,37,38,38,31,{16}31,8,{8}37,37,
{16}6,4,6,4,6,4,6,4,6,5,6,5,6,5,6,5,6,7,6,8,6,1,6,2,6,3,6,,{4}45,
{16}3-7[8:1],4,3,2,{4}3b,{16}6-2[8:1],5,6,7,{4}6b,{16}3-7[8:1],4,3,2,{4}3b,{16}6-2[8:1],5,6,7,{4}6b,
{1}4bV61[4:5]/5bV38[4:5],{2},{4},{8},{16},{32}2,3,4h[16:59],,,,,,{4},,,{1},{32}7,6,5h[16:31],,,,,,{4},,,{1},
{32}2,1,{1}8w4[4:7],,,,,,,,E
Re:MASTER
- 追加しました。修正等ありましたらよろしくお願いします。 -- けもがみ (2023-03-29 12:20:41)
最終更新:2026年04月12日 13:21