アットウィキロゴ

Comet Panto Men!

アーティスト MYUKKE.

BPM BASIC ADVANCED EXPERT MASTER Re:MASTER
170 5 7+ 12 13+ -

EXPERT MASTER Re:MASTER
譜面制作者 翠楼屋 Jack -

BASIC


ADVANCED


EXPERT

(170)
{4}6h[1:1],,,5, 5h[1:1],,,4,
{4}4h[4:3],,,3, {8}52,,34,34,,65,6b/5b,,
{4}7,7,64,53, 2,2,21,18,
{8}1,1,8,8,2,2,7,7, 3h[8:5],,,,,8bx,8bx,,
{4}75,64,3,34, 24,35,6,65,
{4}7,78,2,12, {8}83,,7,,64,64,64,,
{4}7h[4:1],5,64,53, 2h[4:1],4,35,46,
{4}7h[4:1],8,2h[4:1],1-5[4:1], {8},,,,,6x/4x,6x/4x,,

{8}7b/3b,,2,2,4,4,3,3, 8,8,4,4,7,7,5h[4:1],,
{8}6,,7,7,5,5,6,6, 1,1,5,5,3,3,34,,
{8}5b/2b,,56,,7,7,8,, 83,,12,,3x,3x,4x/2x,,
{4}1-5[4:1],,7-3[4:1],, {8}2,,24,,35,53,35,,
{16}6,5,6,5,6,,,,3,4,3,4,3,,,, {4}2h[8:1]/4h[8:1],3h[8:1]/5h[8:1],4h[8:1]/6h[8:1],57,
{16}6,5,6,5,6,,,,3,4,3,4,3,,,, {4}2h[8:1]/4h[8:1],3h[8:1]/5h[8:1],4h[8:1]/6h[8:1],57,
{16}7,8,7,8,7,,,,2,1,2,1,2,,,, {4}8h[8:1]/3h[8:1],7h[8:1]/2h[8:1],6h[8:1]/1h[8:1],61,
{8}7,7,1,1,8,8,2,2, 8h[8:2]/1h[8:2],,,81,,72,7-3[8:1]/2,,

{8}1b-5[8:1],,8,,6,6,57,, {16}3h[16:3],,,4,,,52,,{8}5x/2x,6bx/1bx,7bx-3[8:1]/8bx,,
{8}1b-5[8:1],,8,,6,6,57,, {16}3h[16:3],,,4,,,52,,{8}52,6bx/1bx,7bx/8bx,,
{8}2,2,1,3h[8:2],,4,52,, 6,6,5,7h[8:2],,8,61,,
{4}43,21,87,65, {8}3,3,4,2,8,8,7b/1bqq3[1:1]b,,
{1},,
{1}6qq1[1:1],,
{1}2<7[4:2], 6>3[4:2],
{4}2,2,23,34, {8}4h[4:1]/5h[4:1],,,,45,45,4>1[8:3]/5<8[8:3],,
{4},,,7b/2b,

{8}3,3,4,5-1[8:1],,2,2h[4:1],, 8,8,1,1,82,7bx/3bx,6bx/4bx,,
{8}6,6,5,4-8[8:1],,7,7h[4:1],, 1,1,8,8,17,2bx/6bx,3bx/5bx,,
{8}3,3,4,5-1[8:1],,2,2h[4:1],, 8,8,3,3,34,2bx/5bx,1bx/6bx,,
{4}6-1[8:1]/1-5[8:1],,8-4[8:1]/3-8[8:1],, 1bx/5bx,51,37,5b/6b,
{8}56,7,8,1-5[8:1],,6,6h[4:1],, 5,5,8,8,12,3bx/8bx,4bx/7bx,,
{8}43,2,1,8-4[8:1],,3,3h[4:1],, 4,4,1,1,28,73,64,,
{8}3,3,4,2h[8:2],,1,83,, 6,6,5,7h[8:2],,8,6x/1x,,
{16}7,,7,,2,,2,,8,1,8,1,8,1,8,1, {4}8-4[8:1],2-6[8:1],8,8b,

{4}7b/1b,B6/E5,E1,E3/B4, C,E7/B5,E1,E5/B3,
{4}E2,B6/E6/E7,E8,B3/E3/E4, Ch[2:1],,,8x/1x,
{8}72,,54,,6h[4:1],,5h[4:1],,4h[4:1],,3h[4:1],,5,5,5/3qq6[4:3],,
{8},,,,,,8,8h[8:2], ,1,1h[8:2],,8,8,7/1>8[2:1],,
{4},,,7b/2b,

{8}7x/8x,6,54,3,21,3,45,6, 7-4[8:1],,3-8[8:1],,6,7bx,7bx,,
{8}2x/1x,3,45,6,78,6,54,3, 2-5[8:1],,6-1[8:1],,3,,28,,
{8}65,7,81,2,34,2,18,7, 6-1[8:1],,2-5[8:1],,7,8bx,8bx,,
{8}61,,2,24,,6,57,8b/4b, ,3,24,1-5[8:1]/5,,8,8<1[2:3],,
{1}4b, ,
{8}3h[8:2]/4h[8:2],,,4h[8:2]/5h[8:2],,,6,6, 6h[8:3],,5,47,,8x/1x,8x/1x,,
{8}2,2,4,4,5,5,7,7, 3,3,1,1,8,8,6,6,
{16}4,5,4,5,4,5,4,5,3,6,3,6,2,7,2,7, {8}1b,,82,82,,4b/6b,7b-3[8:1]/3b,,
{8}1xh[4:3],,,,,,5x,6x/2x, {1},,E

MASTER

(170)
{2}Chf[2:1],{8}8h[4:1],,1,2h[4:1],,1,8,7,6h[4:1],,5,2h[4:1],,4,{16}2,3,4,5,
{8}7h[4:1],,5,3h[4:1],,4,3,2,1h[4:1]/8,7,6,5h[4:1]/1-5-1b[16:3],,1x,,,
{16}28,,6,5,6,,34,,2,1,2,1,2,,38,,47,,6,5,6,,{8}34,2-6[8:1]/6-4[8:1],17,2x/6x,,
{16}3,4,2,,6,5,7,,{24}1,8,1,8,1,8,{32}A2,A3,A4,A5,A6,A7,,,
{8}1bV75[16:3],,1/2b,3b-7[8:1],,3/5x,1bx,,

{16}8h[16:3],,,7h[16:3],,,{8}6^3[8:1],,1,1,28,37,4^1[8:1],6,8h[4:1],,1x,2x/7x,,
6,6^1[8:1],4,2h[4:1],,4,35,46,7-3[8:1],2<4[4:1],7,2,,8b,2b/6b,,
3,3-6[8:1],5,7h[4:1],,8,6,4,12,78,56,{16}2,4,3,5,4,6,
{8}5,78,1,28,37,{16}4,5,4,5,4,5,{32}A2,A3,A4,A5,A6,A7,,,
{8}1x/2x,3-6[8:1]/7-2[8:1],,37,,15,4bv1[8:1]/8bv5[8:1],,Cf,,

37,{16}6,6,{8}5,8,2,4,7,5,{16}6xp4[8:3]*pp4[8:3],6x,6x,6x,{2},
{8}1h[8:1]/2h[8:1],,38,4,{16}6,5,6,5,{8}8,17,2-5[8:1],5^2[8:1],2^7[8:1],6h[4:1],,,
6,4,{4}3-1[8:1]/1-4[8:1],13,5-7[8:1]/8-5[8:1],58,
{8}2V48[16:3]/1hx[8:1],,5,5,1-5[8:1]/7-5[8:1],8,17,,
2^5[8:1]/8h[4:1],,2,7^4[8:1],,78,1,{4}2-4[8:1],2-5[8:1]/5h[8:1],2/6h[8:1],{8}78,16,,

{16}3-1[8:1],4,3,4,{4}3,{16}2-4[8:1],1,2,1,{4}2,{8}5h[8:1]/6h[8:1],,78,6,4,12,{16}7,6,5,4,
{16}2-5[8:1],1,2,1,{4}2,{16}3-8[8:1],4,3,4,{4}3,{8}7,7p3[8:1],5,7,,2,8,56,
{16}3^8[8:1],4,3,4,{4}3,{16}2^5[8:1],1,2,1,{4}2,{8}6h[8:1]/7h[8:1],,58,1V72[16:3]/4V63[16:3],{2},
{16}8,1,8,,2,2,3,3,4,4,5,5,6,6,{8}7pp3[16:5],5h[8:3],,,Cf,,

1x/8x,2b>8[16:5]/7b,,1b,,,{16}2,1,{8}2h[8:1],3h[8:1],4h[8:1],5h[8:1],{16}6,,,18,,,
{8}34,,1b,3b/7b<1[16:5],,8,,,{16}7,8,{8}7h[8:1],6h[8:1],5h[8:1],4h[8:1],{16}3,,,81,,,
{8}6/5-1[8:1],,8b,8b,,7-3[8:1],4^1[8:1],7,4,,78,56,34,2^5[8:1],1,2,{16}8,7,6,5,{8}34,1,37,
8-4[8:1],7-5[8:1],8,7,,2,8,56,4-8[8:1],3-1[8:1],4,3,,8x,2b/6bpp4>5b[4:7],,{1}B3/B4/E4f,,

{8}3h[4:1],,4,2h[4:1],,4,35,,5h[8:1],,5h[8:1],,5,5,46,,
6h[4:1]/7h[4:1],,,6h[4:1]/7,,5,5,5,6h[4:1]/7h[4:1],,,7h[4:1]/6,,5,5,5,E7/B6,E5/B4,E3/B2,E1/B8,
{32}D5,D4,D3,D2,D1,D8,D7,D6,{8}D5,,18,2,18,7,1^4[8:1]/8^5[8:1],27,{4}1b/8b,Chf[4:3],,,B4/A4/B8/A8,

{8}1-5[8:1],6<4[4:1],1,6,,5,7,12,3^8[8:1],5,3,{16}7,6,5,4,{8}1x,2x/8x,
37,6v4[8:1],4V68[8:1],6,2h[4:1],,1,3,56,8,6,34,{16}2,1,{8}2,38,5,78,2,2^5[8:1],5qq7[8:3],2,,
8h,8h,8h,6,5,43,{16}1,2,3,4,{8}5x/6x,4x^1[8:1]/8x^5[8:1],,48,,
48,2h[4:1]/6,,1,34,56,7-2[8:1],3-6[8:1],7,3,,18,2b/7b,,

{8}8-4[8:1],3>5[4:1],8,3,,4,2,8,6h[8:1]/7h[8:1],,5h[8:1]/8h[8:1],,67,4x/1x,6x/7x,,
3v5[8:1],5V31[8:1],3,7h[4:1],,8,6,3/4hx[4:1],,1x,23,{16}4x,4,
{8}2x-8[8:1],6-4[8:1],2x,6,3,3qq5[4:1],5,3,,7-5[8:1]*-3[8:1],7,7,,4-2[8:1]*-8[8:1],4,4,,
5x/6x,4x^1[8:1]/8x^5[8:1],,48,,48,2/6h[4:1],,5,18,7/3h[4:1],,4w8[8:1],35,4,,1x/7x,{2}4bw8b[8:1],

{4}A2/A6,C,A3/A7,C,A4/A8,Ch[4:1],,A5/A1,C,A2/A6,C,{8}A3,A4,A5,A6,,D2/D8,D4/D6,,
{4}E1/Ch[4:1]/E5,,A6/B6,A5/B5,A4/B4,A3/B3,{8}E1,C,E5,,
3h[8:3],,,5h[4:1],,4,4,{4}6-4[8:1],2-6[8:1],8-4[8:1],{8}1,1x>7[4:1],{2},{16}8x,8x,{8}8x-4b[8:1],26,,,

1x/7x,{16}3,5,4,6,5h[4:1],,,,8,7,6,5,4,3,{8}2^5[8:1]/8,1,2/6-3[8:1],7,6/1-5[8:1],8x,1x/7x,,
46,{16}3,5,2,4,1h[4:1],,,,5,6,7,8,1,2,{8}34,8,56,1,24,8,75,18,
27,{16}6,4,5,3,4h[4:1],,,,1,2,3,4,5,6,{8}7^4[8:1]/1,8,7/3-6[8:1],2,3/8-4[8:1],1x,8x/2x,,
35,,78,46,,12,45,{4}7-5[8:1]/8-4[8:1],7-3[8:1]/8-2[8:1],78,{8}5x/6x,2b/8b,,

4h[4:1],,5,7h[4:1],,5,4,3,5h[4:1],,4,2h[4:1],,4,{16}2,3,4,5,
{8}7h[4:1],,5,3h[4:1],,4,5,6,57,4,5,24,,1x/8x,1x/8x,,
17,45,28,{16}3,3,{8}4,12,57,{16}6,6,5,7,{8}7,24,{16}1,1,{8}8,45,27,,
{16}3,6,3,6,{24}2,7,2,7,2,7,{32}A1,A2,A3,A4,A5,A6,A7,A8,{4}C,
4hb[4:1]/5hb[4:1],{8},2V48[8:1]/7V51[8:1],,27,A8/D1f/A1,,
45,,2,7,3-7[8:1],6-2[8:1],3,{1}6,,,,E

Re:MASTER


  • 追加しました。修正等ありましたらよろしくお願いします。 -- けもがみ (2023-04-13 00:09:20)
  • added EXPERT -- cubruce1103 (2023-08-25 02:12:04)
名前:
コメント:

タグ:

+ タグ編集
  • タグ:
最終更新:2026年04月12日 14:36