アットウィキロゴ

HiT! HiT! HiT!(創作譜面:福音 > 田中)

曲名 HiT! HiT! HiT!
制作者名 福音・田中
音源 SEVEN’s CODE「HiT! HiT! HiT!/Cranky vs HiTECH NINJA」
譜面動画
制作者コメント ---
BPM EASY BASIC ADVANCED EXPERT MASTER
160 - - - - 14+

EASY


BASIC


ADVANCED


EXPERT


MASTER

(160){1},,
{16}8/1,,3,4,3,,6,5,6,,3,4,3,,6,5,
6,,3,4,2,,6,5,7,,3,4,2,,6,5,
7,,2,4,3,,7,5,6,,2,4,3,,7,5,
6,,2,1,3,,7,8,6,,7/2,,1,1,8,8,
8/1,,2,1,2,,7,8,7,,2,1,3,,7,8,
6,,2,1,3,,7,8,6,6,5,5,4,4,3,3,
{16}3b/7hbx[8:1],,,6b/5hbx[8:1],,,2b/8hbx[8:1],,
,3hbx[8:1]/4b,,,6b-1[8:1]/8b-3[8:1],,,,
{8}6b/8b,,,
{16},,,,4x/5x,,,E6/A6/E4/A3,,,
{16}7bx,5,6,4,8,,3,2/5,,6,4/7,,3,5,1,,
2x,4,3,5,1,,6,7/4,,3,5/2,,6,4,8-5[8:1],3,
,,8b-3[8:1]/2h[8:1],,,,8b-5[8:1]/6h[8:1],,
,,8b-3[8:1]/2h[8:1],,,,8b-5[8:1]/6h[8:1],,
,,8b-3[8:1]/2,,1,,8b-5p1[8:2]/6,,
7,,8b,,3b,,,,
2bx,4,3,5,1,,6,7/4,,3,5/2,,6,4,8,,
7x,5,6,4,8,,3,2/5,,6,4/7,,3,5,1-4[8:1],6,
,,1b-6[8:1]/7h[8:1],,,,1b-4q8[8:2]/3h[8:1],,
,,1b,,6b,,,,
D3/B2/B3,,,D7/B7/B6,,,E1/Cf/E5,,,,,,,,,,
4,5,4,,5,4,5,,3,5,3,,6,4,6,,2,4,2,,7,5,7,,
2,4,3,5,4,6,5,7,
2x,4,5,4,3x,5,6,5,
2x,7,5,6,4x,5,3,4,
2x,5,1,7,3x,6,1,8,
3h[8:1],,4,,5h[8:1],,4,,
8,,6,5,7,,3,4,2,,7,8,6,8,7,,
1,,3,4,2,,6,5,7,,2,1,3,1,2,,
6-1[16:1],5,7,5,6b,,3-8[16:1],4,2,4,3b,,7,1,7,1,
{32}7b-3[16:1],6,5,4,3,2,1,8,7x/3x,,,,1,,,,
1,2,3,4,5,6,7,8,1bx/5hx[8:1],,,,,,,,
{16}5/2h[16:3],,,3,2,,5,,4/7h[16:3],,,6,7,,2,3,
4/5,,8,7,6/5,,3,,2/4,,3,,5/6,,7,,
8/4,8b/4b,,7/3,7x^4b[16:1]/3x^8b[16:1],,5x/1x,,
,,,,7h[8:1]/3,,,,
3,4,2x,2x,6,5,7x,7x,1bw5[8:1],,2b/8b,,A1f,,,,
4/7h[16:3],,,6,7,,4,,5/2h[16:3],,,3,2,,7,6,
5/4,,1,2,3/4,,6,,7/5,,6,,4/3,,2,,
{8}8-3[8:1],,8x/3,4,5qq3[8:1]*pp7[8:1],46,A5,,
{16}1x,5,2,6,3,7,4,8,
5x,1,4,8,3,7,2,8,
{16}1bx,1,1,1bx,1,1,1bx,1,1,1bx,1,1,1bx-4[16:1]*^4b[16:1],1b,1b,1bx-6[16:1]*^6b[16:1],
1b,,,1bw5b[16:1],,,1b/Cf,,,,5h[8:1],,4,6/3,,,
{16}7/1-5[16:1],2,3,4-2[16:1],1,,,4,
,,6-8[16:1],,8-4[16:1],8,6,,
2,,3-1[16:1],,1-5[16:1],1,3,,
7h[8:1],,,,4,3,2,,
2/8-4[16:1],7,6,5-7[16:1],8,,,5,
,,1h[8:1],,7,1,7,1,
{32}7b-4[16:1],6,5,4,3v8[16:1],2,1,8,
7x,,,,3x,,,,
{16},,1,,7b/3b,,1,2,
8-4[16:1],7,6,5-7[16:1],8,,,5,
,,3^8[16:1],,8-4[16:1],8,3,,
7,,6^1[16:1],,1-5[16:1],1,6,,
2h[8:1],,,,4,4,3,,
4,2,8,3,7,2,6,5,7,4,6,2,2,4,3,6,
1b,,,,,,,,,,Chf[16:3],,,B7/B6/B2/B3,,,
2bx,4,3,5,1,,6,7/4,,3,5/2,,6,4,8,,
7x,5,6,4,8,,3,2/5,,6,4/7,,3,5,1^4[8:1],6,
,,1b^6[8:1]/6h[8:1],,,,1b^4[8:1]/4h[8:1],,
,,1b^6[8:1]/6h[8:1],,,,1b^4[8:1]/4h[8:1],,
,,1b^6[8:1]/6h[8:1],,,,1b-4q8[8:2]/4h[8:1],,
,,1b,,6b,,,,
7bx,5,6,4,8,,3,2/5,,6,4/7,,3,5,1,,
2x,4,3,5,1,,6,7/4,,3,5/2,,6,4,7,3,
{32},,,,8b/3h[8:1],7,6,5,,,,,8b/5h[8:1],1,2,3,
,,,,8b/3h[8:1],7,6,5,,,,,8b/5h[8:1],1,2,3,
{16},,,6/4,,,A3/A7/B3/B7/Cf,,,,2x,4x,,,7x,5x,
B2,B6,A3,A5,B4,,7,8,,2,1,,27,36,45,,
B7,B3,A6,A4,B5,,2,1,,7,8,,3h[16:1]/6h[16:1],,1/8<6[16:1],,
{8}1,8b-5[16:1]/2,3,8b-4[16:1]/3,2h[4:1],8b^6[16:1],,1^3[16:1]/8b,
1,8/1b-4[16:1],7,6/1b-5b[16:1],7-3b[16:1],1b,7b,,
{16}1,6,5,6,2,4,3,4,
1h[8:1],,8,1,7,5,8,4,
8,3,4,3,7,5,6,5,
8h[8:1],,1,8,2,4,1^3[16:1],5,
8,,1b-4[16:1]/7,,6,,1b-5b[16:1],,7b-3b[16:1],,1b,,7b,,,,
2h[8:1],,4,3,5,4,6h[16:1],,2,31,,7,86,,E5f/B4/B5/B3/B6,,
{16}1hb[16:3],,,4h[16:3],,,3h[16:2],,7hx[16:3],,,5h[16:3],,,8h[16:2],,
2hb[16:3],,,5h[16:3],,,6h[16:2],,8hx[16:3],,,1h[16:3],,,2h[16:2],,
3,,3,6,,6,4,,
5-1[8:1],,1-5[8:1],,5x,,A1,,
2,,2,7h[4:1],,3,4,5,8-4[8:1],,5,,8x,1b,,,
8hb[16:2],,,5h[16:2],,,6h[16:2],,2hx[16:2],,,4h[16:2],,,1h[16:2],,
7hb[16:2],,,8h[16:2],,,5h[16:2],,1hx[16:2],,,7h[16:2],,,5h[16:2],,
8b,,3,2/4,,6,7/5,,3,1/4,,6,8/5,,2,,
{8}E2/E4/E6/E8/B2/B3/B6/B7/Cf,,,,,
{24}8,7,6,5x/1bx,,,,,,
{16}7x/1-5[16:1],2,3,4-8[16:1],1,,,4,
,,6-1[16:1],,1-5[16:1],1,6,,
4,,3-8[16:1],,8-4[16:1],8,3,,
6h[8:1],,,,4,3,2,,
2/8-4[16:1],7,6,5-1[16:1],8,,,5,
,,2h[8:1],,7,1,7,1,
{32}7bv4[16:1],6,5,4,3-8[16:1],2,1,8,
7x,,,,3x,,,,
{16},,8,,2b/6b,,8,7,
1-5[16:1],2,3,4-8[16:1],1,,,4,
,,6^1[16:1],,1-5[16:1],1,6,,
2,,3^8[16:1],,8-4[16:1],8,3,,
7h[8:1],,,,5,5,6,,
5,7,1,6,2,7,3,4,2,5,3,7,7,5,6,3,
8bh[8:1],,,1b/5bh[8:1],,,3b/7bh[8:1],,,1bh[8:1]/6b,,,3bh[8:1]/8b,,1b,,
2,2,1,1,4,4,5,5,8,8,7,7,
5,5,6,6,1-5[16:1],8,1,8,1b,7,,6x/3x,,,4,,5,5,6,6,
7,7,8,8,5,5,4,4,1,1,2,2,4,4,3,3,
8-4[16:1],,1-3[16:1],,
8b,,1b,,
{32}7bx,6,5,4,8bx,7,6,5,1bx,8,7,6,2bx,1,8,7,
{16}2x,3,4,5,2x/6x,,,48,
,,7-5[16:1],,5-1[16:1],5,7,,
3,,2-4[16:1],,4-8[16:1],4,2,,
6h[8:2],,,,8,7,6,5,
8/4x,8,8x,7x/3,3,3x,2x/6,6,6x,1/5x,1,1x,/Chf[4:1],,,,
{64}B6/B2,B7,B3,B4,B8,E1,E5,,
{16},,,,,,,,3/6,,,5z1b[16:15]/4s8b[16:15],,,
{48}8bx/1bx,7b/2b,6b/3b,5b/4b,
E



名前:
コメント:

タグ:

+ タグ編集
  • タグ:
最終更新:2023年08月31日 19:04