BASIC
(177)
{1},
{2},
{1}1x,
{1}1,
{1}1,
{1},
{1}8,
{1}8,
{1}1x/8x,
{1},
{1}1,
{1}2,
{1}3,
{1}4,
{1}5,
{1}6,
{1}7,
{1}1/8,
{1}8-5[1:1],
{1},
{1}4x,
{1}4,
{1}4-1[1:1],
{1},
{1}8x,
{1}8x,
{1}1h[1:1]/8h[1:1],
{1},
{2}8b,8,
{1}8,
{2}7,7,
{1}7,
{2}6,6,
{1}6,
{2}5,5,
{1}4/5,
{2}4,4,
{1}4,
{2}3,3,
{1}3,
{2}2,2,
{1}2,
{2}1,1,
{1}1,
{2}8,8,
{1}8,
{2}1x,1x,
{1}1x/8x,
{1}1h[2:1],
{1}1,
{1}8h[2:1],
{1}8x,
{1}B1,
{1}B8,
{1}B2,
{1}B7,
{1}B3,
{1}B6,
{1}B4,
{1}C,
{2}8,8,
{1}7,
{2}6,6,
{1}5,
{2}4,4,
{1}3,
{2}2,2,
{1}1,
{1}1hx[1:1]/8hx[1:1],
{1},
{1}1-4[1:1],
{1},
{1}5,
{1}5,
{1}5-8[1:1],
{1},
{1}1h[1:1],
{1},
{1}B1/B8,
{1}B2/B7,
{1}B3/B6,
{1}B4/B5,
{1}C,
{1},
{2}1x,1,
{2}2,2,
{2}3,3,
{1}3/4,
{2}5,5,
{2}6,6,
{2}7,7,
{1}7/8,
{2}8,8,
{2}7,7,
{2}6,6,
{1}5/6,
{2}4,4,
{2}3,3,
{2}2,2,
{1}1/2,
{2}8,8,
{1}1/8,
{2}1,1,
{1}1/8,
{1}1/8,
{1}1/8,
{1}2h[1:1]/7h[1:1],
{1},
{1}B3/B6/C,
ADVANCED
EXPERT
(177)
{6}1x,1x,1x,8x,8x,8hx[12:5],
{4},1bx,
{4}2,3,5,46,
{4}7,6,4,35,
{4}2,3,5,4/6q3[2:1],
{1},
{4}2,3,5,46,
{4}7,6,4,35,
{4}26,26,37,{8}8x,8x,
{8},1x/7x,{4}1x/7x,{2}2x/6x,
{4}3h[4:11]/5,5,4,4,
{4}5,5,4,4,
{4}5,4,5,4,
{4}12,18,7x/8x,7x/8x,
{4}6h[4:9],5,4,4,
{4}5,5,7,7,
{4}5,5,56,7,
{4}7x/8x,1x/7x,{2}2b/7b,
{2}6-1[4:1],{4}2,2,
{4}8bx,8bx,{2}1bx/7bx,
{4}E2,C,E6,E7,
{4}E8,C,{2}B4/E3,
{2}2-5[4:1],{4}6,7,
{4}8bx,8bx,1bx/7bx,6h[4:1],
{4}5,3h[4:1],4,5h[4:1],
{4}4,45,36,3/6<3[2:1],
{1},
{4}2x/8x,{8},1x,{4}1x,28,
{4}3b/4b,12,78,56,
{4}34,12,38,38,
{4}12,34,56,78,
{4}12,34,25,25,
{2}6-1[4:1],3-8[4:1],
{2}6-1[4:1],{4}2,2,
{4}3h[4:1],1h[4:1],8h[4:1],6,
{4}5x/7x,{8},4x,{4}4x,36,
{4}1bx/2bx,7bx/8bx,5bx/6bx,3bx/4bx,
{4}1bx/2bx,12,38,38,
{4}27,16,27,38,
{4}56,45,34,2,
{2}1v6[4:1]/2^5[4:1],{4},7,
{2}7^4[4:1]/8v3[4:1],{4},2,
{4}2h[4:1],4h[4:1],5h[4:1],7,
{4}28,28,{2}3bx/7bx,
{4}6h[4:1],7h[4:1],8h[4:1],1h[4:1],
{4}2h[4:1],3h[4:1],{2}Cf,
{4}1x/8x,{8}2,2,{4}12,{8}7,7,
{4}78,{8}1,1,{4}1x/8x,1xs5[8:5]/8x,
{1},
{4}7h[4:1],5h[4:1],6,47,
{4}2h[4:1],4h[4:1],3,{8}45,45,
{8},36,{4}36,{2}2x/7x,
{4}E2,E3,E4,E5,
{4}6,6,{2}56,
{4}E8,E7,E6,E5,
{4}3,3,34,34,
{2}2h[4:1]/5h[4:1],3h[4:1]/4h[4:1],
{2}5h[4:1]/6h[4:1],4h[4:1]/7h[4:1],
{4}38,38,27,1-5[8:3]/6,
{2},{4},4bx/6bx,
{8}3,3,{4}4,{8}6,6,{4}5,
{2}4/7-3[4:1],{8}1x,1x,{4}1x,
{4}28,28,{8}3,3,{4}4,
{4}35,35,46,46,
{8}7,7,{4}8,{8}2,2,{4}1,
{2}3-6[4:1]/8,{8}7x,7x,{4}7hx[4:1],
{4}5,5,46,35,
{4}2x/6x,2x/6x,3x/7x,3x/7x,
{2}2b/8b,1b/7b,
{4}5x/6x,5x/6x,3x/4x,3x>6[4:5]/4x,
{1},
{2},{4},6<3[4:5],
{1},
{2},{4},3,
{2}3h[4:1]/4h[4:1],4h[4:1]/5h[4:1],
{2}5h[4:1]/6h[4:1],4h[4:1]/5h[4:1],
{2}3h[4:1]/4h[4:1],3-6[2:1]/4,
{2},{4}8,8<3[4:5],
{1},
{2},{4}2,2>7[4:5],
{1},
{2},{4}8,8,
{4}7,6,5,45,
{4}3x/4x,7x/8x,5x/6x,1x/2x,
{4}1b/2b,34,56,78,
{4}12,34,56,47,
{4}56,34,12,78,
{4}56,34,2bx/5bx,2bx/5bx,
{2}6-1[4:1],3-6[4:1],
{2}7-4[4:1],{4}2,2,
{4}3h[4:1],1h[4:1],8h[4:1],6,
{4}57,{8},4,{4}4,3x/5x,
{4}78,56,34,12,
{4}78,78,16,16,
{4}27,38,27,16,
{4}34,45,56,7,
{2}7^4[4:1]/8p3[4:1],{4},2,
{2}1q6[4:1]/2^5[4:1],{4},7x,
{4}7h[4:1],5h[4:1],4h[4:1],2,
{4}12,12,{2}3b/7b,
{4}6h[4:1],7h[4:1],8h[4:1],1h[4:1],
{4}2h[4:1],3h[4:1],4,25,
{4}1x/8x,47,18,25,
{4}3h[4:1],{8}4,4,{4}4,35,
{4}46,{8}6,6,{4}57,{8}3,3,
{4}24,{8}6,6,{4}57,1x/8xz4[8:5]b,
{1},
{8}1x/8x,1x/8x,1x/8x,1x/8x,{2}8x-4[8:1]b/1x-5[8:1]b,
{1}2bx/7bx,
E
MASTER
(177)
{6}2x/5x,6x,4x/7x,3x,2x/5x,6xh[12:5],
{4},B5/B4/E5f,
{4}2-5[8:1],6,8h[4:1],{8}5,5,
{8}7,7h[4:1],,6^3[8:1],,8,{4}8,
{4}7-4[8:1],3,2h[4:1],{8}4,4h[4:1],
{8},5,{4}5h[4:1],7,18,
{4}7-4[8:1],3,1h[4:1],{8}4,4,
{8}2,2h[4:1],,3^6[8:1],,1,{4}1,
{4}2-5[8:1],6,7h[4:1],{8}5,5h[4:1],
{8},4,{4}4,45,2b/7b,
{2}1s5[2:1],{4}6,6,
{4}7,8-5[8:1],4,4,
{2}4^1[4:1]/5^8[4:1],{4},1x/8x,
{4}17,28,{2}8-2[8:1]/1-5[8:1],
{4}4,3qq8[2:1],5,6,
{4}7,7,48,A6/D7/A7/E6,
{4}A8/E8/B8/E1,B5/E5/A4/E4,A2/B2/E3/B3/A3,{8}1,1,
{4}8,27,45,3b/6b,
{4}2h[4:1],1,7h[4:1],8,
{4}D7/E7/B6/E6/D6/A6f,B5/B4/E5/A5/D5f/A4,E3/B3/E4/D4/A3f/D3,1bx/7bx,
{4}2^5[4:1],8,7^4[8:1],1,
{4}2^5[4:1],7,8h[4:1],5,
{4}2h[4:1],4,7h[4:1],5,
{4}A8/E1/B8/B4/E5/A4f,A3/B3/E4/E8/B7/A7f,A2f/B2/E3/E7/B6/A6,1x/5x,
{4}1h[4:1]/5,4,3/7h[4:1],5,
{4}3h[4:1]/6,4,12,78,
{1}5q4[2:1]/6<3[2:1],
{4}2bhx[4:1]/6bhx[4:1],{8},3b/7b,{4}37,1>5[4:1],
{4}5<1[4:1],1>5[4:1],5<1[4:1],1s5b[8:3],
{4}5,{8},6x,{4}6hx[4:1],5,
{4}5-1[8:1]/7,6,2/4-8[8:1],3,
{4}5-1[8:1]/7,6,24,15,
{4}6-1[8:1],2-5[8:1],7-4[8:1],3-8[8:1],
{4}6-3[8:1],2-7[8:1],5,6h[4:1],
{4}8h[4:1],1h[4:1],3h[4:1],4-7[8:1]*-1[8:1],
{4},{8},1x/8x,{4}1x/8x,2-5b[8:1]/7,
{4}1-6b[8:1],2-5b[8:1],1-6b[8:1],2-5b[8:1],
{4}1-6b[8:1],2,3h[4:1],4,
{4}1-5[8:1]/2-4[8:1],1x/2x,7-5[8:1]/8-4[8:1],7x/8x,
{4}1h[8:3],{8},8,{4}8,27,
{2}1-6[8:1]/2-5[8:1],7-4[8:1]/8-3[8:1],
{2}1-6[8:1]/2-5[8:1],{4}78,{8}6,6,
{4}5,18,34,18,
{4}46,8-4[8:1]/2-6[8:1],{2},
{1}6pp4[2:1]/3qq5[2:1],
{4}A7f/E7/B7,A2f/E3/B2,B4/B5/E5f/A5/A4,6h[4:1],
{4}Ch[1:1]f,E7,E8,E1,
{2}E2,{4}1x/8x,8xz4[2:1]/1xs5[2:1],
{2},{4},4x/7x,
{4}2x/5x,1^4[4:1]/8^5[4:1],{2},
{4}7h[4:1],5,2h[4:1],{8}4,4h[4:1],
{8},5,{4}5,36,3h[1:2]/6,
{4}E5,E4,E3,E2,
{4}E1,E8,E7,5w1[4:1],
{2},{8},28,{4}28,
{4}56,47,34,25,
{4}46,4-1[8:1]/6-8[8:1],{2},
{4}35,3v1[4:1]/5^8[4:1],{2},
{4}28,28,17,17,
{4}6<2[4:1],2v4[4:1],{2}4b,
{4}2h[4:1]/4,1b,5/7h[4:1],8b,
{4}2-6[8:1],7-3[8:1],{8}1,1,{4}2x/8x,
{4}1/6h[4:1],5,{8}4x/7x,4x/7x,{4}4x/7x,
{4}3h[4:1]/8,4,{8}2x/5x,2x/5x,{4}2x/5x,
{2}8-5[8:1]/7-4[8:1],2^4[8:1]/1-4[8:1],
{2}6-8[8:1]/5-8[8:1],{8}12,12,{4}38,
{8}8,7,6x,5,4,3,2x,1,
{8}8bx,7,6bx,5,4bx,3,2bx,1,
{2}8-4[8:1],1-5[8:1],
{4}4h[8:1]/6h[8:1],3h[8:1]/5h[8:1],4h[8:1]/6h[8:1],3/5<2[2:3],
{4}4,4,4,4,
{4}4,4,4,4>7[2:3],
{4}5,5,5,5,
{4}5,5,5,5-8[4:3],
{4}4,4,4,4-1[4:3],
{4}8,8,8,8-5[4:3],
{4}1,1,1,1,
{2}1h[4:3],{4}7,8<3[2:3],
{4}1,1,1,1,
{4}1,1,1,1>6[2:3],
{4}8,8,8,8,
{4}8,8,8,57,
{4}1,24,45,27,
{4}1-4[8:1]/8-5[8:1],1x/8x,2x/7x,8<4[4:1],
{4}4>8[4:1],8<4[4:1],4>8[4:1],8z4b[8:3],
{4}4,{8},3,{4}3,1>5[4:1]/6,
{4}5<1[4:1],1>5[4:1],5<1[4:1],1-5b[4:1],
{2}5,3-8[8:1]/4-7[8:1],
{4}16,7-4[8:1],2-5[8:1],6-1[8:1],
{4}3-6[8:1],7-2[8:1],4,3h[4:1],
{4}1h[4:1],8h[4:1],6h[4:1],5-8[8:1]*-2[8:1],
{4},{8},1x/8x,{4}1x/8x,3/6-1b[8:1],
{4}5-2b[8:1],6-1b[8:1],5-2b[8:1],6-1b[8:1],
{4}5-2b[8:1],6,7h[4:1],5,
{1}6pp4b[2:1]/3qq5b[2:1],
{2}3bhx[4:1]/6bhx[4:1],{8}18,18,{4}27,
{2}7v4[8:1]/8-3[8:1],1-6[8:1]/2v5[8:1],
{2}7v4[8:1]/8-3[8:1],{4}12,{8}3,3,
{4}4,18,56,18,
{4}34,3v6[4:1]*p6[4:1]/4,{2},
{4}7h[4:1],8,2h[4:1],1,
{4}27,1-4[8:1]/8-5[8:1],{2}18,
{4}7-4[8:1],3-8[8:1],6-1[8:1],2-5[8:1],
{4}7-4[8:1],{8}1,1,{4}25,34,
{4}2-5[8:1],6-1[8:1],3-8[8:1],7-4[8:1],
{4}2-4[8:1],{8}8,8,{4}47,1s5b[4:1]/8h[4:1],
{1}1bx,
{8}2x/7x,2x/7x,3x/6x,3x/6x,{4}4x/5x,8b-4[8:1]/1b-5[8:1],
{1}1bx/8bx,
E
Re:MASTER
最終更新:2026年03月08日 14:41