アットウィキロゴ

初音天地開闢神話

アーティスト cosMo@暴走P

BPM BASIC ADVANCED EXPERT MASTER Re:MASTER
240 5 8 11 13+ -

EXPERT MASTER Re:MASTER
譜面制作者 隅田川星人 はっぴー -

BASIC


ADVANCED


EXPERT


MASTER

(240)
{1},

{4}6h[1:2],E6,,E5,
{4},E6,,E5,
{4}3h[1:2],E4,,E5,
{4},E4,,E5,
{4}6h[4:7],E6,,E5,
{4},E6,,E5,
{12}1,8,1,8,1,8,2,7,2,7,2,7,
{12}3,6,3,6,3,6,{4}4-7[12:1]*-1[12:1],4b,

{12}8,,8,1,,1,2,,2,3,,3,
{12}4,,4,5,,5,{4}6,47,
{12}1,,1,8,,8,7,,7,{4}6-4[12:1],
{4}2-5[12:1],7-4[12:1],1-5[12:1],8h[4:1],
{12}1b,,1,8,,8,7,,7,6,,6,
{12}5,,5,4,,4,{4}3,25,
{12}1,,1,8,,8,{4}27,36,
{12}4,5,4,5,4,5,4,7,4,{4}7h[1:1],
{4},5,,4,
{4},3h[6:1]/6h[6:1],,2-8[12:1],

{4}2-4[12:1],5h[12:5],{12},,3,{4}2-8[12:1]/4,
{4}2-4[12:1],5h[12:5],{12},,3,{4}2-8[12:1]/4,
{4}2-4[12:1],5h[12:5],{12},,3,{4}2-8[12:1]/4,
{4}2-4[12:1],7-1[12:1],7-5[12:1],3,
{12}2,,2,4,,4,3,,3,6,,6,
{12}5,,5,7,,7,{4}3,4-8[12:1]*-1[12:1],
{4},5-8[12:1]*-1[12:1],,5qq8[12:5]/4pp1[12:5],
{2},{4},3/7-1[12:1],

{4}7-5[12:1],4h[12:5],{12},,6,{4}5/7-1[12:1],
{4}7-5[12:1],4h[12:5],{12},,6,{4}5/7-1[12:1],
{4}7-5[12:1],4h[12:5],{12},,6,{4}5/7-1[12:1],
{4}7-5[12:1],2-8[12:1],2-4[12:1],6,
{12}7,,7,5,,5,6,,6,3,,3,
{12}5,,5,2,,2,{4}4,3bV14[3:1]*pp4[3:1],
{2},{4},35,
{4}46,5w1[4:1],{2},

{4}18,18,78,67,
{4}5/6-1[12:1],5>2[12:1],8,8-5[12:1]*-3[12:1],
{4},1<6[12:1]*>4[12:1],,8h[4:3],
{4}6b,4b,2b,35,
{4}18,18,12,23,
{4}3-8[12:1]/4,4<7[12:1],1,1qq7[12:1]*pp3[12:1],
{4},8v5[12:1]*v3[12:1],,1h[4:3],
{4}3,5,7,2<4[2:1],

{2},{4},{12}25,,2h[3:1]/5,
{4},6,{12}7,,7,{4}5,
{4}78,1v6[6:1]/2>5[6:1],{2},
{4}7hx[4:1],5h[4:1],4h[4:1],2h[4:7],
{4}4x,E5,6x,E6,
{4}4x,E5,6x,E6,
{12}3x,4x,3x,6x,5x,6x,3x,4x,3x,{4}5hx[4:1],
{2}Cf,{4},36,

{4}2-6[12:1],1-5[12:1],8-4[12:1],7-3[12:1],
{4}2h[4:1],4,1-4[12:1]/5,6<1[12:1],
{4}3<6[12:1],8h[4:1],{12}1,,1<6[6:1]/2>5[6:1],{4},
{2},{4}47,25,
{12}1,,7,5,7,5,8,,2,4,2,4,
{12}1,,7,5,7,5,8,,2,4,2,4,
{4}1,6xqq1[2:1],{2}4hx[4:3],
{2},{4}3,2/8<4[4:1],

{4}4>8[4:1],8<4[4:1],4>8[4:1],8<4[4:1],
{4}4>8[4:1],8,4,28,
{4}3<6[12:1],6,7>2[12:1],2,
{4}3<6[12:1],6,7>2[12:1],2,
{12}3,,6,5,,7,8,,3,4,,2,
{12}1,,4,{4}5<8[12:1],1>4[12:1],7x-3[12:1],
{4}2x-6[12:1]/7x,2x/5x-8[12:1],4x-1[12:1]/5x,4x/5x,
{12}2x/7x,,2x/7x,{4},{2}C,

{2}1x/8xh[1:3],3,
{2}5,{4}5,4,
{2}3,{4}5,6x,
{4}6x,4x,2x,1-3[12:1],
{4}1-5[12:1],1-4[12:1],1-6[12:1],1-3[12:1],
{4}1-5[12:1],1-4[12:1],1,8-6[12:1],
{4}8-4[12:1],8-5[12:1],8-3[12:1],8-6[12:1],
{4}8x-4[12:1],8x-5[12:1],8x-3[12:1],8x<1[2:1],

{2}Cf,{4},{12}1x/8x,,1x/8x,
{2},{4}45,36,
{12}7,,7,5,,5,4,,4,2,,2,
{12}1,,1,8,,8,7,,7,{4}5,
{4}1xw5[12:1],1x,8xw4[12:1],8x,
{4}1xw5[12:1],1x,8xw4[12:1],8x<1[2:1],
{2},{4},8h[2:1],
{2}1h[4:1],2b/7b,

{12}1b,2,3,8x,7,6,2,3,4,7x,6,5,
{12}2,3,4,7x,6,5,1x,8,7,6x,5,4,
{12}8,7,6,1x,2,3,7,6,5,2x,3,4,
{12}7,6,5,2x,3,4,8x,1,2,3x,4,5,
{12}2,3,4,1x,2,3,7,6,5,8x,7,6,
{12}1,2,3,8x,7,6,1x,8,7,6x,5,4,
{12}7,6,5,8x,7,6,2,3,4,1x,2,3,
{12}8x,7,6,1x,2,3,{4}8x,4x/6x,

{12}3x,4,3,6x,5,6,3x,4,3,6x,5,6,
{12}2x,1,2,7x,8,7,1x,8,1,2x,3,4,
{12}6x,5,6,3x,4,3,6x,5,6,3x,4,3,
{12}7x,8,7,2x,1,2,8x,1,8,7x,6,5,
{12}2x,1,2,7x,8,7,2x,1,2,7x,8,7,
{12}2x,1,2,7x,8,7,1x,8,1,2x,3,4,
{12}7x,8,7,2x,1,2,7x,8,7,2x,1,2,
{12}7x,8,7,2x,1,2,{4}8-4[4:1],4>5[2:3],

{1},
{1},
{1},
{1},
{4}5,6h[4:3],{2},
{4}4,3h[4:3],{2},
{4}5,6h[4:3],{2},
{1}Ch[4:9],
{1},
{1},

{1}1x-4[4:5]/8x-5[4:5],
{2},{4},4^1[12:1]/5^8[12:1],
{1},
{1},
{1},
{2}Cf/B4/B5,{12}1,8,1,{4}2b/7b,
{12}45,,2,4,3,4,1b,,7,5,6,5,
{12}8b,,2,4,3,4,1b,,7,5,6,5,
{12}7x-3[12:1],,7x,8x-4[12:1],,8x,1x-5[12:1],,1x,2x-6[12:1],,2x,
{12}3x-7[12:1],,3x,4x-8[12:1],,4x,{4}5x,1>5[4:1],

{4}5<1[4:1],1>5[4:1],5<1[4:1],1>5[4:1],
{4}5<1[4:1],1,5,17,
{4}6^3[12:1],3,2^7[12:1],7,
{4}6^3[12:1],3,2^7[12:1],7,
{12}5,,3,4,,2,1,,6,5,,7,
{12}8,,3,4,,2,{4}1,2-5[12:1]/5,
{4}2/7-4[12:1],3-8[12:1]/7,3/6-1[12:1],2h[4:1]/6,
{4}4,1-4[12:1]/5-8[12:1],{2},

{12}3,5,3,5,3,5,2,6,2,6,2,6,
{12}3,7,3,7,3,7,2,8,2,8,2,8,
{12}4,6,4,6,4,6,3,5,3,5,3,5,
{12}1,7,1,7,1,7,{4}1,2h[4:1]/6h[4:1],
{12},,1,5,1,5,1,4,1,4,1,5,
{12}1,4,1,5,1,4,1,5,1,4,1,5,
{4}1-5[12:1],7-2[12:1],3pp3[3:1],8,
{2},{4}45,2x/7x,

{12}3b,8,3,8,3,8,3,8,3,8,2,7,
{12}1b,6,1,6,1,6,1,6,1,6,2,7,
{12}3b,8,3,8,2,7,1b,6,1,6,2,7,
{12}3b,8,3,8,2,7,1b,6,1,6,2,7,
{4}3b,5^2[6:1]/6v1[6:1],{2},
{4}3,3v8[6:1]/4^7[6:1],{2},
{4}18,1^4[6:1]/8^5[6:1],{2},
{4}4b/5b,3b/6b,2b/7b,1b/8b,

{12}4b,5,4,5,4,5,4b,7,4,7,4,7,
{12}4b,1,4,1,4,1,4b,3,4,3,4,3,
{12}4b,2,4,1b,4,8,4b,7,4,6b,4,5,
{1}Cf,
{1}2b/7b,
E

Re:MASTER


名前:
コメント:

タグ:

+ タグ編集
  • タグ:
最終更新:2026年02月28日 16:19