BASIC
ADVANCED
EXPERT
MASTER
(150){8}B1,B2,B3,B4,B5,B6,B7,B8,1xs5[8:1],,,,5hx[4:1]/6hx[4:1],,,,{4}3h[1:2],4,,4,,4,,4,6h[4:5],5,,5,,5-1[8:1]*-8[8:1],,2b/7b,{16}4/6-1[8:1],,4,,6,5h[8:1],,1x,,8x,,4x/7x,4x/7x,,6x,,5/3-8[8:1],,5,,3,4h[8:1],,8x,,1x,,5x/2x,5x/2x,,6x,,{8}3/5,4,3,5,4/6,5,7,5,4/6,,{4}2z6[4:1]/7s3[4:1],,,
{8}3h[4:1],,4,3h[8:3],,E4,E3,,6h[4:1],,5,6h[8:3],,B6f,,,3h[4:1],,4,3h[8:3],,E4,E3,,1,1,2,3h[4:1],,4,5,5,6h[4:1],,5,6/7h[8:3],,E8,E7,,
3h[4:1],,4,3/2h[8:3],,E2,E3,,3/4,,5/7,,2/4,,1/5,7-2[8:3]/3-6[8:3],,,,,,,C,,1hx[8:1]/8hx[8:1],,2>5[4:1],2,,,,,5hx[8:1]/6hx[8:1],,7<4[4:1],7,,,,,{4}2-7[8:1],6-3[8:1],,1hx[8:1]/2hx[8:1],8-4[8:1],1-5[8:1],,4/6,3<6[4:1],6V84[8:3],,,6>3[4:1],3V15[8:3],,,2p6[4:1],6p2[4:1],{8}8,8-4-8[2:1],,1,,1-5-1[2:1],{4},,,6h[4:1],5,3h[4:1],4,{8}5,4/6,3-8[8:1]/7-4[8:1],,{32},E4/E8,C,,{8},2b/6b,,
{16}1-5[8:1]/8,,7,7,1>4[8:1],,6,6,1,,,,7,,5,,8-4[8:1]/4,,3,,8<5[8:1]/2,,1,1,8w4[8:1],,,,,,,,2,,1/3,,4,,3/5,,7,,6/8,,5,,4/6,,2hx[16:3],,,3h[16:3],,,4,,4/5,,,,5,4,5,4,{8}5bx<3[4:1],,3,3,4bx>6[4:1],,6,6,5bx<3[4:1],,3,3,4bx>6[4:1],,6,6,5,4,3/5,4,5,6,5/7,6,3/7,5,2/8,6,1-4[8:1]b*s5[8:1]b/2,,1b,,{16}3/6-2[8:1],,4,,6,5h[8:1],,2x,,1x,,8x/4x,8x/4x,,2x/6x,,7/3-7[8:1],,5,,3,4h[8:1],,7x,,8x,,1x/5x,1x/5x,,7x/3x,,{8}2>5[8:1],2,7-3[8:1],7,1<6[8:1],1,5-1[8:1],5,4,4,3v8[8:1]/5v8[8:1],3/5,,,1b/7b,,{16}8-4[8:1]/1,,2,2,8<5[8:1],,3,3,8,,,,2,,4,,1-5[8:1]/5,,6,,1>4[8:1]/7,,8,8,1w5[8:1],,,,,,,,{8}1x/3hx[4:1],,4,5,8x/6hx[4:1],,5,4,3-7[8:1]/5-1[8:1],,3<6[4:1]/5>2[4:1],,,,,,
{8}6,6h[1:1],,5,,5,,7,,7,7hx[8:1]/8hx[8:1],,6,5,4,,3,3h[1:1],,4,,4,,2,,2,2hx[8:1]/1hx[8:1],,3,,{16}8hx,7hx,6hx,5hx,3hx[8:1]/4hx[8:1],,,,3hx,,2hx,,1hx,,7hx,8hx,,7hx[8:1]/8hx[8:1],,,4hx[8:1]/5hx[8:1],,,,5hx,,6hx,,7hx,,8hx,
8hx[16:3]/1hx[16:3],,,,,{8}3,3>8[8:1],,7<4[8:1],,2<7[8:1],,6>3[8:1],,1-5[8:1],1,1,,4-8[8:1],4,4,,1h[8:1]/7h[8:1],,5h[8:1]/3h[8:1],,1h[8:1]/2h[8:1],,5h[8:1]/6h[8:1],{2},Ch[4:5],{8},B1/B8,,,A8/E1,,,,1,1,1w5[8:1],,,,3/7,,{1}1h[4:3]/2>6[2:1],7h[4:3]/6>2[2:1],4<8[2:1]/5>1[2:1],{8}1/8,1-5[8:1]/8-4[8:1],,1/8,,,4/6,3/5,
{8}4bx/5bx<3[4:1],,2,3,4bx>6[4:1],,6,5,4bx<3[4:1],,3,4,5bx>6[4:1],,7,6,5,4,1/3,2,1,8,5/7,6,3/7,4/5,2/8,5/6,1-4[8:1]b*s5[8:1]b/2,,1b,,{16}3/6-2[8:1],,4,,6,5h[8:1],,2x,,1x,,8x/4x,8x/4x,,2x/6x,,7/3-7[8:1],,5,,3,4h[8:1],,7x,,8x,,1x/5x,1x/5x,,7x/3x,,{8}2>5[8:1],2,7-3[8:1],7,1<6[8:1],1,5-1[8:1],5,4,4,3v8[8:1]/5v8[8:1],3/5,,,1b/7b,,{16}1-5[8:1]/8,,7,7,1>4[8:1],,6,6,1,,,,7,,5,,8-4[8:1]/4,,3,,8<5[8:1]/2,,1,1,8w4[8:1],,,,,,,,{8}1x/3hx[4:1],,4,5,8x/6hx[4:1],,5,4,3>8[8:1],,7>2[8:1],,,,5b,,
{4}4h[1:2],E4/B3,,E2/A2,,E4/B3,,E6/B6,5h[2:3],B7/E7,,E8/B8,,E3/B2,1x-4[8:1]b*s5[8:1]b,1b,{16}3/7-3[8:1],,4,,7,6h[8:1],,3x,,2x,,1x/5x,1x/5x,,3x/7x,,6/2-6[8:1],,5,,2,3h[8:1],,6x,,7x,,8x/4x,8x/4x,,6x/2x,,{1}1h[4:3]/7h[4:3],{4}2h[8:3]/8z4[2:1],,{16},,D2,A1,D1,E
Re:MASTER
- 入力されていた譜面が頓珍漢の宴だったので削除しました -- でびゅー (2026-03-29 13:24:06)
- MASTER譜面を追加しました。修正等ありましたらよろしくお願いします。 -- Sugar (2026-06-27 14:00:37)
最終更新:2026年06月27日 14:00