アットウィキロゴ

welcome to maimai!! with マイマイマー

アーティスト Hiro feat.越田Rute隆人&ビートまりお

BPM EASY BASIC ADVANCED EXPERT MASTER Re:MASTER
163 3 6 8+ 9+ 12+ -

EXPERT MASTER Re:MASTER
譜面制作者 mai-Star 某S氏 -

EASY


BASIC


ADVANCED


EXPERT


MASTER

(163)
{2}1,2,{4}1b/8b,2b/7b,3b/6b,4b/5b,
2h[4:1]/7h[4:3],,2,2,6h[4:1]/3h[4:3],,6,6,
1h[4:1]/8h[4:3],,1,1,2h[4:1],4h[4:1],{8}6h[4:1],8,{4}8,
7h[4:1]/2h[4:3],,7,7,3h[4:1]/6h[4:3],,3,3,
8h[4:1]/1h[4:3],,8,8,7h[4:1],5h[4:1],{8}3h[4:1],1,1,,

8,7,6,5,4,{4}3h[4:1],2h[4:1],1-5[8:1],,{8}6,7,8<1[8:5],
{1},{4}2h[4:1],4h[4:1],{8}6h[4:1],8,8,,
1,2,3,4,5,{4}6h[4:1],7h[4:1],8-4[8:1],,{8}3,2,1h[8:3],
,2>7[8:3],{4}2,,,7h[4:1],5h[4:1],{8}3h[4:1],1,{4}1,

2^5[8:1],8,7^4[8:1],1,1/2^5[8:1],8,7^4[8:1]/8,1,3^8[8:1],5,6^1[8:1],4,4/3^8[8:1],5,6^1[8:1]/5,4,
2^5[8:1],1,7^4[8:1],8,2^5[8:1]/5,8,7^4[8:1]/4,1,{1}3>6[2:1],{8},5,4,5,3,6,2,7,
1-5[8:1],8,1,,6-2[8:1],5,6,,3-7[8:1],4,3,,8-4[8:1],1,8,,
5-1[8:1],6,57,,7-3[8:1],8,71,,2-6[8:1],1,28,,4-8[8:1],3,42,,
1-6[8:1],2,3,4,5-2[8:1],6,7,8,18,,,15,{16}37,,,26,,,4>8[8:3]/8<4[8:3],,{1},{4}1b/8b,27,36,45,

{8}4,5,26,37,26,,5,4,73,62,73,,4,5,6,7,
{4}8-4[8:1],8-3[8:1],8-5[8:1],8^3[4:1],3^6[4:1],6-2[4:1],{8}8,1b,1b,,
4,5,68,71,82,,5,4,31,28,17,,4,5,6,7,
{4}7/8-4[8:1],1,2/1-5[8:1],8,1-4[8:1]/8-5[8:1],18,{8}1b/8b,2b/7b,3b/6b,,

5,4,73,62,73,,4,5,26,37,26,,5,4,3,2,
{4}1-5[8:1],1-6[8:1],1-4[8:1],1^6[4:1],6^3[4:1],3-7[4:1],{8}1,8,8,,
5,4,31,28,17,,4,5,68,71,82,,5,4,3,2,
{4}1-6[4:1],6-3[4:1],3-8[4:1],8<1[2:1],,,{8},8b,{4}1b,

2h[4:1]/7h[4:3],,4,4,6h[4:1]/3h[4:3],,5,5,
{8}2/7h[8:1],4,3h[8:1]/6,5,1/8h[8:1],4,2h[8:1]/7,5,3/6h[8:1],4,1h[4:1]/8h[4:1],,,8b,{4}1b,
7h[4:1]/2h[4:3],,5,5,3h[4:1]/6h[4:3],,4,4,
{8}7/2h[8:1],5,6h[8:1]/3,4,8/1h[8:1],5,7h[8:1]/2,4,6/3h[8:1],5,{4}8h[4:1]/1h[4:1],,,{1}2^5[4:1]/6^1[4:1],

{2}3>7[8:5],5,6<2[8:5],4,3>7[8:5],5,6<2[8:5],4,
{1}3>7[8:5]/4h[2:1],6<2[8:5]/5h[2:1],{2}3-7[4:1],6-2[4:1],4-8[4:1],,
{1}5q2[8:5]/6<2[8:5],4p7[8:5]/3>7[8:5],5q2[8:5]/6<2[8:5],4p7[8:5]/3>7[8:5],
{2}2h[8:3]/8h[8:7],6h[8:7],4h[4:3],{8}2h[4:1],,,2>8[8:5]/8<2[8:5],{1},{4}1b/8b,27,36,45,

{8}3,4,7-3[8:1]/8-4[8:1],16,7b/8b,,6,5,2-6[8:1]/1-5[8:1],83,2b/1b,,4,5,6,7,
{4}8p4[8:1],8v3[8:1],8^5[8:1],8^3[4:1],3^6[4:1],6-2[4:1],{8}8,1b,1b,,
6,5,2-7[8:1]/1-4[8:1],83,2b/1b,,3,4,7-2[8:1]/8-5[8:1],16,7b/8b,,3,4,5,6,
{4}7-2[8:1],37,1-6[8:1],14,4h[4:1]/5,5p4[4:1],,,

{8}1h[8:1],3h[8:1],5h[8:1],7h[8:1],1,,8v6[8:1],8v2[8:1],{2}8-4[8:1],{8}5,4,3,2,
{4}1q5[8:1],1v6[8:1],1^4[8:1],1^6[4:1],6^3[4:1],3-7[4:1],{8}1,8,8,,
6,5,2^5[8:1]/1^6[8:1],83,2b/1b,,3,4,7^4[8:1]/8^3[8:1],16,7b/8b,,5,4,3,2,
{4}1q6[4:1],6q3[4:1],3q8[4:1],8<1[2:1],{2},{8},8b,1b,,

2b/7h[8:1],5,3h[8:1]/6b,4,1b/8h[8:1],5,2h[8:1]/7b,4,3b/6h[8:1],5,1h[8:1]/8b,4,2b/7h[8:1],5,3h[8:1]/6b,4,
{32}3,4,5,6,7,8,1,2,3,4,5,6,7,8,1,2,3,4,5,6,7,8,1,2,{8}3,1b/8b,{1}2b/7b,,,,E

Re:MASTER


  • 追加しました。修正等ありましたらよろしくお願いします。 -- けもがみ (2026-02-26 15:13:10)
名前:
コメント:

タグ:

+ タグ編集
  • タグ:
最終更新:2026年10月04日 18:07