EASY
BASIC
ADVANCED
EXPERT
MASTER
(180){2}5-3[8:1]/6-1[8:1],4-6[8:1]/3-8[8:1],5-2[8:1]/6-8[8:1],4-7[8:1]/3-1[8:1],{4}7/8,1/2,5/6,3/4,{8}3/6,3/6,3/6,,{4}4,4,3q8[8:1]/4<7[8:1],,6p1[8:1]/5>2[8:1],,{8}3,3,6,6h[4:1],,5>2[8:1],,7h[4:1],,8>3[8:1],,6h[4:1],,5,5>2[8:1],,8<5[8:1],,3,3h[4:1],,4,2/5,,{2}8p4[8:1]/7<5[8:1],1q5[8:1]/2>4[8:1],{8}6,6,3,3h[4:1],,4,4<7[8:1],,1-5[8:1],,8-4[8:1],,3-7[8:1],,8,8,,1/2,3/8,,3,2,1,,{2}6p1[8:1]/5>2[8:1],3q8[8:1]/4<7[8:1],{8}6,6,3,3h[4:1],,4<7[8:1],,2h[4:1],,1<6[8:1],,3h[4:1],,4,4<7[8:1],,1>4[8:1],,6,6h[4:1],,5,4/7,,{2}1q5[8:1]/2>4[8:1],8p4[8:1]/7<5[8:1],{8}3,3,6,6h[4:1],,5,5>2[8:1],,8-4[8:1],,1-5[8:1],,6-2[8:1],,1,1,,7/8,1/6,,4/5,,2/7,,
{4}2-6[8:1]/5,1,7-3[8:1]/4,8,2-5[8:1],8-5[8:1],1,6/8,7-3[8:1]/4,8,2-6[8:1]/5,8,7-4[8:1],1-4[8:1],8,1/3,3/6,1/8,{8}4/5,4/5,4/5,,3/4,3/4,,1/8,,5/6,5/6,,2/4,2/4,2/4,,7/5,7/5,7/5,,3/6,3/6,4,5,3-8[8:1]/6-1[8:1],,,,{4}2-6[8:1]/5,7-3[8:1],1-4[8:1],6p4[4:1],,,{8}1/2,1/2,1/2,,{4}7-3[8:1]/4,2-6[8:1],8-5[8:1],3q5[4:1],,,{8}8/7,8/7,8/7,,1/2,,4/7,,5/6,5/6,5/6,,3/4,3/4,,1h[4:1]/6,,3,3,,5/7,5/7,5/7,,3/4,2/5,,1/8,,6,5,4,3,,1b/8b,,
{4}1p3[4:1]/8V64[4:1],,{8},2/7,,3/8,,5/6,4/7,,2/5,,1/8,,{4}8q6[4:1]/1V35[4:1],,{8},7/2,,6/1,,4/3,5/2,,7/4,,8/1,,{4}6-1[8:1],4-1[8:1],5,2,3-8[8:1],5-8[8:1],4,7,{8}5/6,5/6,5/6,,3/4,3/4,3/4,,1/8,2/7,,4/5,{2}4>1[8:1]/5<8[8:1],
{8}2q5[4:1],,,7,7p4[4:1],,,3,3p8[4:1],,,6,6q1[4:1],,,2,2>5[8:1],,6-2[8:1],,3-8[8:1],,5<4[2:1],,{4},,,2/7,{16}2/4h[16:3],,,6h[16:3],,,8,,{8}8,,1/3,,{16}7/5h[16:3],,,3h[16:3],,,1,,{8}1,,8/6,,{4}2-5[8:1],7-4[8:1],{8}2,2,7,7,{4}1b/8b,2b/7b,3b/6b,4b/5b,{8}6q1[4:1],,,3,3p8[4:1],,,7,7<4[8:1],,3-7[8:1],,6-1[8:1],,2-5[8:1],,8-4[8:1],,2,2,2>5[8:1],,8<1[2:1],,{4},,,3/6,{8}7p4[4:1],,,1,1,,5/6,,2q5[4:1],,,8,8,,4/3,,,7,7-4[8:1],,2-5[8:1],,8-4[8:1],,{1}1>8[2:1],{2}3<5[8:1]/6-1[8:1],6>4[8:1]/3-8[8:1],{8}2,3,4,6h[4:1],,5>2[8:1],6,7h[4:1],,8>3[8:1],7,6,,4,5,5,3,3-7[8:1],6,6-1[8:1],,4,4,,{2}6>4[8:1]/3-8[8:1],3<5[8:1]/6-1[8:1],{8}7,6,5,3h[4:1],,4<7[8:1],3,2,1>4[8:1],,6-2[8:1],,3-8[8:1],,5,5,,1/2,1/2,,3/8,3/8,5/6,,
{2}4b<6[8:1]/8b-3[8:1],5>3[8:1]/1-6[8:1],{8}1/7,1/7,2/8,2/8,,5/6,4/7,3/8,,4/3,5/2,6/1,,1/8,1/8,,{1}5p4[8:3]/4>6[8:3],{2}5>3[8:1]/1-6[8:1],4<6[8:1]/8-3[8:1],{8}2/8,2/8,1/7,1/7,,4/5,3/6,2/7,8<5[8:1],,3-7[8:1],,6-1[8:1],,4,4,,7/8,7/8,,1/6,1/6,3/4,,{4}4p8[8:1]/6,5<8[8:1],3>8[8:1],4q8[8:1],2qq7[8:3],,{8}5,5,5,,{4}5q1[8:1]/3,4>1[8:1],6<1[8:1],5p1[8:1],7pp2[8:3],,{8}4,4,4,,7/8,,2/5,,3/4,3/4,3/4,,5/6,5/6,,3/8h[4:1],,6,6,,2/4,2/4,2/4,,5/6,4/7,,1/8,,3,4,5,6,,1b>8[2:3]/8b<1[2:3],E
Re:MASTER
- MASTER譜面を追加しました。修正等ありましたらよろしくお願いします。 -- Sugar (2026-08-11 15:52:01)
最終更新:2026年10月03日 22:29