アットウィキロゴ

愛のシュプリーム!

愛のシュプリーム!
アーティスト fhána

BPM BASIC ADVANCED EXPERT MASTER
135 1 6 8 12+

EXPERT MASTER
譜面制作者 はっぴー 翠楼屋
※maimaiでらっくすPRISMで削除済み

BASIC


ADVANCED


EXPERT


MASTER

(135){4}56,E4/B7,34,B2/E6,56,E4/B7,34,B2/E6,56,E3/E8,34,E2/E7,56,E3/E8,34,{8}18,27,36,5,{16}2h[16:3],,,4,,4,{8}3,5,2,1,8,{16}7h[16:3],,,5,,5,{8}6,4,7,8,1,{16}2h[16:3],,,4,,4,{8}3,5,2,1,8,{16}7h[16:3],,,1,,1,{8}8,2<5[4:1]/7>4[4:1],36,
2x/7x,,,,36,36,45,{16}6,5,,47,,3,4,,25,,1b/6b,,2b/7b,,8b/3b,,2,1,,3,4,,25,,1,,24,,6,5,,8,1,,3,4,,7,5,6,,4,4,,35,,1b/7b,,8x,,{4}7/2>6[4:1],6<2[4:1],2>6[4:1],6,8b,1v4[8:1]/7v4[8:1],{32}1x/7x,Cf,,,{16},,{8},{16},5x,4x-8[8:1],,3,,2/4x,,,1x,8x-4[8:1],,7,,8x/6x,,,5x,4x-8[8:1],,3,,24,,,1xh[8:1],,8x,8x,,1b/7b,,2,,36,,5,4,6h[8:1],,4,5,2xh[8:1],,4,3,7h[8:1],,5,6,{8}4,4,3-1[8:1]/5-7[8:1],26,3x/5x,,2x/6x,5,4/3h[8:1],{16}6,5,7h[8:1],,3,4,2h[8:1],,6,5,8h[8:1],,1,,{12}3x/6x,3x/6x,3x/6x,4x/5x,4x/5x,4x/5x,{8}3b/6b,,7x/2>7[4:1],,
2x/7<2[4:1],,1,,{16}8x,8x,,35,,26,,17,{8}1-3[8:1]/7-5[8:1],8,1x-5[8:1]/7x-3[8:1],,1b/7b,,2x/6x,{16}5,4,{8}6>3[8:1],7,1,1,7/2<7[8:1],3,5,5,6-2[8:1],7,6x/4-1[8:1]*-7[8:1],3,4x,,2b/6b,35,4v2[8:1]*v6[8:1],,4-8[8:1],,C,,7x/2,36,4v3[8:1]/5v6[8:1],,4-8[8:1]/5-1[8:1],,C,,2x/7x,36,45,{16}3,4,1,,28,,37,,46,46,,35,3x/5x,,{12}6b,5x,7x,2b,1x,3x,{8}4b/5b,8b/1bw5[8:1],2b/7b,{32}1b,Cf,,,{2},
{16}4x-1[8:1]*-7[8:1]/5x,4x/5x,,,{4}4b>6[4:1],,4<2[4:1],4x/3,4>6[4:1],4x/5,4-7[8:1],4-1[8:1]/2x,4<2[4:1]/6x,4x/3,4>6[4:1],4x/5,4w8[8:1],4x,{16}26,26,,35,,6,5,,{4}3b/8b<2[4:1],2/8x,8>6[4:1],8x/6,8<2[4:1],8x/2,8w4[8:1],8,2x/6x,{16}3,4,,25,,7,8,,6,5,,74,,2,1,,{8}3/8-5[8:1],7,4qq2[8:1],3,{4}4pp6[8:1]/6x,2x/4x>6[4:1],4x,4<2[4:1],4x/2,4>6[4:1],4x/5h[4:1],{32},E5,E4,E3,E2,E1,E8,E7,{4}E6,1b/8b<2[4:1],8x/2,8>6[4:1],8x/6,8<2[4:1],8x/1h[4:1],{32},E1,E8,E7,E6,E5,E4,E3,{4}E2/Cf,1x/7x,{16}2,1,,83,,6,5,,7,8,,16,,3,4,,{8}56,7,1-5[8:1]/8-6[8:1],2,1-3[8:1]/8-4[8:1],,1b/8b,,2x/5,1,8,7x/4h[4:1],,5x,3x/6x,Cf/B2/B3/B4/B5/B6/B7/E3/E5/E7,,,,27,{16}1/8w4[8:1],18,,,{4}8b,2xh[4:1]/6x,{16}4,,4,3,,6,5,,{8}7-4[8:1],3-8[8:1],7,3,5,1h[4:1],,8,{16}2,4,3,,{8}4/7xh[4:1],,5,{16}5,6,,1,{8}8,18,27,3qq5[8:5],6pp4[2:1],3x,6b,
{1},E


  • 追加しました、最近メイドドラゴン見始めて、maimaiあるからやろうと思ったら消えてました、なんでや -- やあきましゅう (2025-12-13 20:57:51)
名前:
コメント:

タグ:

+ タグ編集
  • タグ:
最終更新:2025年12月13日 20:57