アットウィキロゴ

炉心融解

アーティスト iroha(sasaki)/kuma(alfred)

BPM EASY BASIC ADVANCED EXPERT MASTER Re:MASTER
165 3 4 7+ 11 13 -

EXPERT MASTER Re:MASTER
譜面制作者 Jack 玉子豆腐 -

EASY


BASIC


ADVANCED


EXPERT


MASTER

(165)
{1}4>7[16:9],
{2}6h[2:1],5,
{12}3,5,4>5[3:4],,,,{2},
{1},
{8},,,,4b/5b,3/6,{16}5,4,5,,
{8}2/4,,5/7,,8<4[8:3],8,,,
{8},3,,2h[4:1],,1,,1/2,
{8}1/2,,3/8,,1>5[8:3],1,,,
{8},6,,7h[4:1],,8,,7/8,
{8}1b/6b,,,3,2/4,,,6,
{8}5/7,,,3,2/4,4,5,5,
{8}6,6,7,7,6/8,,,2,
{8}3/1-6[8:1],,1,3h[4:1],,7<4[4:1],8,7,
{8},1,8,7,6/8,,,2,
{8}1/3,,,7,6/8v2[16:3],6,5,5,
{8}4,4,3,3,2/4,,,6,
{8}5/7-4[8:1],,7,2-5[8:1],1,2,8,,
{8}8,7,6,5,4/3-8[8:1],,3,,
{8}7,6,5<1[4:1],4,,3,,2,
{4}2,1/3,7/8h[4:1],6h[4:1],
{8}4h[4:1],,2,1-5[8:1]/2-6[8:1],,1/2,,3/8,
{8},2,3,4,5/6-1[8:1],,6,,
{8}2,3,4>8[4:1],5,,6,,7,
{4}7,6/8,2/1h[4:1],3h[4:1],
{8}5h[4:1],,7,7-3[8:1]/8-4[8:1],,7/8,,1/6,
{8},5,4q5[4:1],,,,,,
{8}2-5[8:1]/7-4[8:1],,,,6h[8:1],7h[8:1],8h[8:1],1-5[8:1],
{8},1,8,,1bq6[8:1]/2b>5[8:1],,,,
{8}7,6,5,4h[8:5],,3,2,1,
{8}8h[2:1],7,6,5,4v5[8:1],,,,
{8}7p2[8:1],,,,3h[8:1],2h[8:1],1h[8:1],8-4[8:1],
{8},8,1,,1/8qq8[4:1],,,,
{8}2,3,4,5h[2:1],,6,7,8q3[8:7],
{1},
{8},,,,4/5,2/7,{16}4,5,3/6,,
{4}2>5[8:1]/6<1[8:1],2/6,2q6[8:1]/6q2[8:1],2/6,
{8}1/5,,3/7,5/1h[4:1],,5p7[8:3],,1p3[8:3],
{8},,,,,8,7,6,
{8}7/5h[4:1],,4,3/6,,5-8[12:2]/6V83[8:3],,5/6,
{8},,,,,8-6[8:1],2-6[8:1],8b-4[8:1],
{8}2b-4[8:1],8b<3[16:3],2b,8b,,2h[4:1],,1,
{8}8h[2:1],,1,2,3h[2:1],,4,5,
{8}6h[4:1],,5,,1/8,2/7,3/6,,
{4}3>8[8:1]/7<4[8:1],3/7,3q7[8:1]/7q3[8:1],3/7,
{8}4/8,,2/6,4/8h[4:1],,4q2[8:3],,8q6[8:3],
{8},,,,,1,2,3,
{8}2/4h[4:1],,5,3/6,,1/8,,2>6[4:1],
{8}2h[2:1],,,,7,1-3[8:1],7-3[8:1],1b-5[8:1],
{8}7b-5[8:1],1b>6[16:3],7b,1b,,7h[8:3],,8,
{8}1h[2:1],,8,7,6h[4:1],,5,4,
{8}3,2/4,1/5,6/8,7b,,8<5[8:3],,
{8}8h[4:3],,,,,4,3,2,
{2}2-4[8:1]/8h[4:1],2-5[8:1]/7h[4:1],
{2}2-6[8:1]/6h[4:1],2-7[8:1]/5h[4:1],
{4}5-8[4:1],8-3[4:1],3-6[4:1],6pp1[4:3],
{2}4h[4:1],3h[4:1],
{8}2h[4:1]/8h[4:1],,,,1h[4:1],8,7,6pp1[4:3],
{2}2h[4:1],3h[4:1],
{4}4h[4:1],,4/7,5-2[8:1],
{4}5,5-7[8:1]*-8[8:1],5,5w1[8:1],
{4}5,5V71[8:1]*V31[8:1],5,5pp1[16:7]*qq1[16:7],
{4}5,,,1pp5[32:13]*qq5[32:13],
{4}1,,,4/5,
{1}1b>4[1:1]/8b<5[1:1],
E

Re:MASTER


名前:
コメント:

タグ:

+ タグ編集
  • タグ:
最終更新:2026年10月03日 22:18