アットウィキロゴ

ヤミナベ!!!!(創作譜面:福音 > 田中)

曲名 ヤミナベ!!!!
制作者名 福音・田中
音源 ヤミナベ!!!! - cosMo@暴走P feat.初音ミク
譜面動画
制作者コメント YouTubeに掲載した譜面に調整ミスが多かったため、一部改変しております。
BPM EASY BASIC ADVANCED EXPERT MASTER
--- - - - - 14+

EASY


BASIC


ADVANCED


EXPERT


MASTER

(264){1},,
{2}1,1,{4}1,1s5[8:1]/8z4[8:1],,,
2^7[6:1]/6,6,6^3[6:1]/2,2,1,8,{16}8,17,26,35,A4f,,,,
{12}3,4,3,6,5,6,3,4,2,6,5,7,
{4}3pp3[4:1],3xqq3[4:1]/E8/B7,E8/B7,,
7^2[6:1]/3,3,3^ 6[6:1]/7,7,8,1,{16}1,82,73,46,A5f,,,,
{12}3-7[8:1],,3,1-5[8:1],,1,2-6[8:1],,2,8-4[8:1],,8,
1x,2,3,5x,6,7,2x,3,4,6x,7,8,
{12}12,,3,4,,4,5,,5,6,,6,
5,,5,4,,4,3,,3,2,,,
{12}45,3,2,1,8,7,36,2,1,8,7,6,
45,3,2,1,8,7,36,2,1,8,7,6,
{4}5-1[2:1]/1,,,,28,1w5[8:1],1b`Cf,,{4}2b-5[8:1]/6b,2/8-4[8:1],
3-8[8:1]/8,3/5-1[8:1],2>5[8:1]/5,28,17,,{12}2,4,2,7,5,7,3,1,3,6,8,6,{6},1b/8,2b/7,3b/6,4b/5,Cf/E7/B7/B6/B2/B3/E3,
(200){4},5bpp4[4:1],4>5[4:1],8,
{8} ,3,4qq5<4[2:1],6,
{4} 4,E7/B6/B7,5,8V63[4:1],3>7[4:1],7V14[4:1],4<8[4:1],8-3[4:1],3s7[6:1],
{8},,8b,,{8}3x/7x,,68,6-2[8:1]/8,,4,,13,{4}1-5[8:1]/3,3,3/4-8[8:1],3,
{8}37,,13,1/3-7[8:1],,5,,68,68,7,8,1-5[8:1]/5,,8x,8x,,
{16}1,6,3,8,2,5,4,7,2,5,4,7,1,6,3,8,
2,1,3,8,4,7,5,6,3,4,2,5,1,6,8,7,
1b,7,3,5,2,8,4,6,
3b,5,2,7,4,6,2,8,
5bx,6,4,5,3b,4,2,6,
8bx,7,1,8,2b,1,3,7,
(100){4}4x>8[4:1],8-4[8:1]*<8[2:1],,
8<4[4:1],
(95)4^2[8:1]*-8[8:1],,
(90){32}1x/7,,,7x/5,,,3/5x,,
1/3x,,,2x/6,,,(180)7xz3[174#8:5]/8pp3[174#8:5],,,,
(175){4},,(174),,
{8} 1/7b-3[8:1],,8,8,
{16} 14,5,6,7,28,3,4,5,
{8} 6/8-4[8:1],8,2,2,
{16} 35,6,7,8,12,3,4,5,{16}7b/8b,,6,5,7^4[8:1],,8,1,{8}7,3,12,3,45,{16}6,5,7-3[8:1],,8-4[8:1],1,{8}7,8,5,3,{8}1b-5[8:1],,1/6-1[8:1],7,4-8[8:1]/6,3,2-5[8:1]/4,1,25,6,
7-3[8:1],8-4[8:1],7^4[8:1],8,7,,{16}2-5[16:1],1,3,8,2b,,
7-4[16:1],8,6,1,7b,,7,1,7,1,{32}7bv4[16:1],6,5,4,3-8[16:1],2,1,8,{8}7x,3x,5,1,3b/7b,,{16}2,3,4,1,2,3,7,6,5,8,7,6,1b,,,,
6x,5,6,4x,7,4,8x,3,8,2x,1,2,8,3,7,4,
(116){4}5bw1[2:1],,,,{8}3/Cf,,6/Cf,,{16}2/Cf,,,{48}7/Cf,6,5,4,3,2,1,8,7bx,,,,,,,
(232){16}18,,3,4,3,,6,5,6,,2,,8-4[8:1],,7-3[8:1],,8>6[2:1],,7,
,8,,,,6b,,,,7b,,78,,,,,,{8}16,2,38,7,62,3,47,6,51,2h[8:2],,,,Cf,
,{16}2,1,2,,7,8,7,,2,1,3,,7,8,
6,,4,5,4,,{24}7b,8,1,{8}2,,34,56,
78,{24}1bx,2,3,{8}4,56,3x/4x,{24}8bx,7,6,{8}5,34,5x/6x,
{24}1bx,2,3,{8}4,56,4-1[8:1]/5-8[8:1],,4b/5b,,
{16}3,4,3,4,3,,6,5,6,5,6,,2,4,2,4,2,,7,5,7,5,7,,18,,27,,63,,2>7<2[8:5]/7,,,,,,B7,,,,B2,,,,,,,,
2b/6b,,8b/4b,,,,,,3,4,3,,45,,36,,{8}1x/2x-6[8:1],3,1x-5[8:1]/2x,8x,1x/2x-6[8:1],3,1x/2x,,8x/7x-3[8:1],6,8x-4[8:1]/7x,1x,8x/7x-3[8:1],6,8x/7x,,
16,2,38,7,62,3,47,6,
15,2v5[8:1]/6v1[8:1],,2<3[4:1],,Cf,,,
{16}4x,6,4,6,4,6,4,6,3x,7,3,7,3,7,3,7,
2x,8,2,8,2,8,2,8,1x,1,1,1,1-5b[110#8:5],1,1,1,
(116){4}1bh[110#4:3],,
(99){4},,
(91){4}2z6z2[4:3]/8h,7h,,7h,7s3s7[4:3],2h,,2h,
2^1z5^6[4:3],7h,,7h,7^8s4^3[4:3],2h,,{12}2h,1h,8h,
(137){1}7h[1:1],{4},,{16},,6,5,6,7,6,,{8}54,3,54,6,54,2,54,7,54,1,
{16}54,54,,C,8b,8b,8b,8b,8b,8b,B8`Cf`B4,,
(273){12}3,4,3,6,5,6,2,4,2,7,5,7,
4,3,2,5,6,7,3,2,1,6,7,8,
2,5,3,4,2,5,3b,,,7,4,6,
5,7,4,6b,,,8b/1b,72,63,54,,,
1x/B1,,2x/B2,,3x/B3,,6x/B6,,7x/B7,,8x/B8,,
1x-5b[8:1],2,3,1b,,,2,1,2,7,8,7,
2,3,4,7,6,5,4hb[4:1],,,1,8,7,26,1,8,7b/3b,,,,,,,,,
(285){12}{12} 1b,2,3,8,7,6,2,3,4,7,6,5,2,3,4,7,6,5,1,8,7,6b,5,4,
8,7,6,1,2,3,7,6,5,2,3,4,7,6,5,2,3,4,8,1,2,3b,4,5,
2,3,4,1,2,3,7,6,5,8,7,6,1,2,3,8,7,6,1,8,7,6b,5,4,
7,6,5,8,7,6,2,3,4,1,2,3,4b-8[8:1],,,,,,,,,,,,
(300){12}3x,5,3,6x,4,6,3x,4,3,6x,5,6,
2x,8,2,7x,1,7,1x,8,1,2x,3,4 ,
{6}5b/6b,4b/7b,3b/8b,4b/3b,5b/2b,6b/1b,
{8}8,8,7,7,{6}E1/E7,B1/B6,B2/B5,
{12}3,4,3,4,,,6,5,6,5,,,
2,4,2,4,,,7,5,7,5,,,
{16}27,,,,1x,2,3,4,5x/8x,7,6,5,
{24}1x/4x,2x,3x,4x,5x,6x,7x,8x,1x,2x/7x,6,5,4,3,2,1,8,7,
(75){4}6xw2[4:1]/2,,
(300){16},,,,,,,,1x,2,8x,7,2x,3,7x,6,
3x,4,6x,5,2x,3,6x,5x,4x,3x,2x,1x,8x/4x,73,62,51,
{2}8b/4b,{16}6,,,6,5,,,5,4,,,4,3,,,,
{12}D1,A8,D8,E1,B8,B7,B2,C,B6,B3,B4,E5,
{8}3x,,B1/B2/E2,,4,3,2x/5x,,
{16}7x,6,5x,4,8x,7,6x,5,1x,8,7x,6,2x,1,8x,7,
{8}3,3,3,24,,,6,6,6,57,,,
1-5[8:1],,1,8,,,1b/8b,,
{12}2b,3,4,7b,6,5,1b,2,3,8b,7,6,5bx,4,3,2bx,1,8,7bx/2b,,,,,,
{8}63,,,,4bx/5bx,2b/7b,3b/6b,8bx/1bx`B8/B1`Cf,,,,,,,,,,,,,,,E



##comment

タグ:

+ タグ編集
  • タグ:
最終更新:2023年06月14日 15:21