アットウィキロゴ

でんでんぱっしょん

MASTER

(186)
{8}
36,,,,,45,27,,
56,,34,,1h[4:1]/2h[4:1],,,
34,,34,56,,7h[4:1]/8h[4:1],,,,
56,,34,,1h[4:1]/8h[4:1],,,
7-4[8:1],,2,2pp1[4:1],,8,,7,,
56,,34,,1h[4:1]/2h[4:1],,,
34,,34,56,,7^4[8:1]/8p3[8:1],,,,
2-5[8:1],,1,,7-4[8:1],,8,,
1-5[8:1],,7,,8-4[8:1],,2,,
1pp4[2:1]/8qq5[2:1],,,,,,,,
2b/7b,,,,,45,36,,2,,8,7,
{16}6h[16:3],,,4h[16:3],,,{8}2,
{16}3h[16:3],,,5h[16:3],,,{8}7,
1^4[8:1]*^6[8:1],,,,
5q2[4:1],,2^7[4:1],,
7p3[4:1],,3,,2,1,,12,7,8,,78,
{16}6h[16:3],,,3h[16:3],,,
{8}8,8,1b,1b,,3,4,5,6,1,8b,8b,,
2-5[8:1],,6-1[8:1],,
3-8[8:1],,7-4[8:1],,,
8,,1,27,36,45,,

{16}2h[16:3],,,6h[16:3],,,{8}4,4-8[8:1],8b,8b,,
{16}7h[16:3],,,3h[16:3],,,{8}5,5-1[8:1],1b,1b,,
3-8[8:1],,8b,,6-1[8:1],,1b,,
{16}2,,,6,,,{8}4^1[8:1]*^7[8:1],4b,,,,
8,1,8,2,8,3,8,4,1,1h[8:3],,8,8^3[8:1]*^5[8:1],,,,
4,5,6,7,{16}1,8,1,8,1,8,1,8,{8}1b,,6,,4,,2b,,
2h[4:1]/5h[4:1],,,,4h[4:1]/7h[4:1],,,18,,
34,34,25,,56,56,47,{16}6,5,6,,3,4,3,,
{8}5,6,7,8,,4-8[4:1],,8^3[4:1]*^5[4:1],,,,,
4h[4:1]/7h[4:1],,,,2h[4:1]/5h[4:1],,,18,,
1-5[8:1]*-6[8:1],1,,,8-4[8:1]*-3[8:1],8,,,
2-6[8:1]*-5[8:1],2,,,7-3[8:1]*-4[8:1],7,,,
1-4[8:1]*-6[8:1],1,,,8-5[8:1]*-3[8:1],8,,,
1-6[8:1]/2-5[8:1],12,,,78,78,16,27,27,36,36,45,,
36,1b/8b,,45,45,45,4b-1[8:1]/5b-8[8:1],27,,,

1,1,1,1,15,26,37,48,,{16}1,8,{8}1^4[8:1]*^6[8:1],,1b,,
8,8,8,1/8>4[4:1],,4<8[4:1],,8,1,2,3,1b,1b,,1b,
3,3,5,4,6,3,7,2,1b,,4,5,3,6,2,7,8b,8b,
7,1,8,2,7,3,6,4,5,1,8,8,12,,78,,1b/8b,1b/8b,
{16}2,1,2,,7,8,7,8,7,,{8}4qq1[8:3]/5pp8[8:3],45,,,,,,,
1,1,1,1<5[4:1]/8,,5>1[4:1],,1,8,7,6,8b,8b,,8b,
7,8-4[8:1],1,2-6[8:1],,5-1[8:1],,
3-7[8:1],,8<1[8:3],,,,,,27,6,6,
2h[4:1],,4,5,6,7,1,1,7h[4:1],,5,4,3,2,8,8,
1h[4:1],,8,7,6,5,4,3,2,,{16}8,1,{8}8,2,
6-1[8:1]*-2[8:1],6,,,
8b/3b,,16,,3h[4:1]/8h[4:1],,,
25,,25,47,,2h[4:1]/5h[4:1],,,,
57,,24,,1h[4:1]/8h[4:1],,,
7-4[8:1],,2,2pp1[4:1],,8,,7,,
16,,38,,1h[4:1]/6h[4:1],,,
47,,47,25,,4^1[8:1]/7^4[8:1],,,,
8q5[8:1],,7,,6q3[8:1],,5,,
4q1[8:1],,3,,2q7[8:1],,1,,
4bqq4[4:6]/5bpp5[4:6],,

タグ:

+ タグ編集
  • タグ:
最終更新:2023年06月15日 20:28