BASIC
ADVANCED
EXPERT
MASTER
(142)
{1}3h[1:3]/6h[1:3],
{1},
{1},
{4},,A5/E5/A4,,
{8}5pp5[8:3]*qq5[8:3],,,,,,,4,
{8}4z8[8:3],,,,,,,8,
{8}8v3[4:1]*v5[4:1],,,,,,,4/5,
{1}4^1[4:1]/5^8[4:1],
{4}8h[1:1],5,,5,
{4}1h[1:1],4,,4,
{4}8h[1:1],5,,5,
{8}1,,,,,A7/B7/E7,A2/B2/E3,,
{16}4/5,,6,,6,5,,4/7,,4/7,,6,5,,7x/8x,,
{16},,3,,3,4,,5/2,,5/2,,3,4,,2x/1x,,
{16},,6,,6,5,,4/7,,4/7,,6,5,,7x/8x,,
{8},1h[4:1]/2-4[8:1],,2,,8h[4:1]/7-5[8:1],,7,
{16},,3,,3,4,,5/2,,5/2,,3,4,,2x/1x,,
{16},,6,,6,5,,4/7,,4/7,,6,5,,7x/8x,,
{16},,3,,3,4,,5/2,,5/2,,3,4,,1xqq4[2:1]/8x,,
{8}1x/8x,,,,,5,5b,,
{8}7-4[8:1],7,3,2-5[8:1],2,6,6,7-4[8:1],
{8}7,3,2-5[8:1],2,6,7,7h[4:1],,
{4}5>1[4:1],6,4<8[4:1],3,
{4}5>1[4:1],6,4,1/5,
{8}2-5[8:1],2,6,7-4[8:1],7,3,3,2-5[8:1],
{8}2,6,7-4[8:1],7,3,2,2h[4:1],,
{4}4,1/8,5/7,4-2[8:1]/5-7[8:1],
{4},4-1[8:1]/5-8[8:1],,4qq1[4:3]b/5pp8[4:3]b,
{1},
{8}1h[2:1]/8h[2:1],,,,,,4b/5b,6,
{8}7^4[8:1],7,3^8[8:1],3,7^4[8:1],7,3,3,
{8}2^5[8:1],2,6^1[8:1],6,2h[4:1],,4,5,
{8}5h[8:1]/6h[8:1],,1h[8:1]/8h[8:1],,3h[8:1]/4h[8:1],,4/5,4/5,
{8}3/6,2/7,1-4[8:1]/8-5[8:1],,1/8,,4x/5x,3,
{8}2^5[8:1],2,6^1[8:1],6,2^5[8:1],2,6,6,
{8}7^4[8:1],7,3^8[8:1],3,7h[4:1],,5,4,
{4}3h[8:1]/5h[8:1],1h[8:1]/8h[8:1],4h[8:1]/6h[8:1],4/6,
{4}A7/E7/E6/A5f,A2/E3/E4/A4f,3hb[4:1]/7hb[4:1],{16},,6,5,
{16}6,,3,4,3,,6,5,6,,3,4,2x,,6,5,
{16}6,,3,4,3,,6,5,6,,3,4,2x,,8<4[4:1],,
{8}8,2,2,1V35[4:1],1,7,7,8<4[4:1],
{8}8,2,2,1,1h[4:1],,8,{16}2,4,
{16}2,,7,5,7,,2,4,2,,6,5,6,,2,4,
{16}2,,7,5,7,,2,1,2,,7,8,7,,1>5[4:1],,
{8}1,7,7,8V64[4:1],8,2,2,1,
{8}1,1/8,1/8,2x/7x,{16}1,8,1,8,1,,3bx/6bx,,
{16},,2,,2,4,,1/5,,1/5,,2,4,,1x/8x,,
{16},,7,,7,5,,4/8,,4/8,,7,5,,1x/8x,,
{16},,2,,2,4,,1/5,,1/5,,2,4,,1x/8x,,
{8},7-5[8:1]/8-4[8:1],,7/8,,2-4[8:1]/1-5[8:1],,2/1,
{16},,7,,7,5,,4/8,,4/8,,7,5,,1x/8x,,
{16},,2,,2,4,,1/5,,1/5,,2,4,,1x/8x,,
{16},,7,,7,5,,4/8,,4/8,,7,5,,8xpp5[2:1]b/1x,,
{8}1x/8x,,,,,4,4,,
{8}5qq5[8:3]*pp5[8:3]b,,,,,,,1,
{8}1s5[8:3],,,,,,,4/6,
{8}4v1[4:1]/6v1[4:1],,,,,,,1,
{4}1>5[4:1]*<5[4:1],,,4/6,
{16}7h[16:3],,,6h[16:3],,,5,,4h[16:3],,,3h[16:3],,,2,,
{16}2h[16:3],,,3h[16:3],,,4,,5h[16:3],,,6h[16:3],,,7,,
{2}8-5[4:1],4-1[4:1],
{8}8b,,,,,A6/E7/B6,A3/E3/B3,,,E
Re:MASTER
(142)
{1}1bh[1:3],
{8},,,Ch[8:13],,,,,
{1},
{4},,E5,,
{16}4/6h[4:3],,,5,,,5,,,5,,,5,,6,,
{16}3h[4:3],,,4,,,4,,,4,,,4,,3,,
{16}6h[4:3],,,5,,,5,,,5,,,5,,6,,
{16}3h[4:3],,,4,,,4,,,4,,,4,,3,,
{16}6h[4:3],,,5,,,4,,,5,,,5,,6,,
{16}3h[4:3],,,4,,,5,,,4,,,4,,3,,
{16}6h[16:9],,,5,,,3,,,4h[16:3],,,5,,3/6,,
{8}7/2h[8:5],,,,,Ch[8:1],,,
{16}8,,8,,7,5,,5,6,5,,5,7,,2x/8x,,
{16}1,,1,,2,4,,4,3,4,,4,2,,1x/7x,,
{16}8,,8,,7,5,,5,6,5,,5,7,,2x-6[16:1]/8x-3[16:1],,
{8},2/8,,2x-6[16:1]/7x-4[16:1],,2/7,,3x/8x,
{16},,4/7,,7,5,,5,6,5,,5,7,,2x/8x,,
{16}1,,1,,2,4,,4,3,4,,4,2,,1x/7x,,
{16}8,,8,,7,5,,5,6,5,,5,7-3[8:1],,3,,
{8}1xbh[8:5],,,,,{16}8,1,{4}2x/7x,
{8}3h[4:1],5,5,7h[4:1],5,5,{16}3,4,{8}2h[4:1],
{8}4,4,6h[4:1],4,4,5/7,8<4[4:1],8,
{4}4>8[4:1],8V64[4:1],4V28[4:1],8<8[2:1],
{4}4b,,,{16}5,4,5,,
{8}7h[4:1],5,5,3h[4:1],5,5,{16}5,4,{8}6h[4:1],
{8}4,4,2h[4:1],4,4,3/5,4/6,5/7,
{4}8^3[4:1],3q8[4:1],{8}8,1,2,3,
{2}4^2[8:1]/7h[4:1],1h[4:1]/6^1[8:1],
{1}3b/4bp6[8:4]*>6[2:1],
{4}Ch[2:1],,,{8}1/8,2V48[4:1]/7,
{8}3/4,2/5,7,6h[8:1],1,2-5[8:1]/5,3/4,2/7V51[4:1],
{8}8,4/7,2,3h[8:1],8,1xb/7xb,1xb/7xb,2/6,
{8}3/7h[8:1],5,2h[8:1]/6,4,3/8h[8:1],5,1/7,2,
{8}3/6,4/7,5/8-5[8:1]b,4,3bh[4:1]/8b,,6x,4/7V51[4:1],
{8}5/8,4/7,2,3h[8:1],8,4/7-4[8:1],5/6,2V48[4:1]/7,
{8}1,2/5,7,6h[8:1],1,2xb/8xb,2xb/8xb,3/7-1[8:1],
{8}4,5-3[8:1],4,6-2[8:1],7,2,3,4,
{4}5x^2[8:1]/8^5[8:1],5/8x,1b/7b,{16}4/6,,3,5,
{16}2,4,2,4,3,5,4,6,3,5,3,5,1,,2/8,,
{16}7,5,7,5,6,3,6,3,5,4,6,5,8,,1V37[4:1]/7,,
{8}3/4,1/6,8,6h[8:1],1,2-6[8:1]/5,3/4,2/7V48[4:1],
{8}8,4/7,2,3b,1b/7b,,{16}3/5,,2,4,
{16}3,5,4,7,5,6,5,6,4,5,3,4,2,,1/5,,
{16}2,4,2,4,3,5,4,6,5,7,4,6,5,,4/6V84[4:1],,
{8}7/8,1/6,3,2h[8:1],5,1^4[8:1]/6,7/8,1/6-3[8:1],
{8}5,1/6,2h[8:1],4,{16}1,5,1,5,{8}2b/6b,3b/7b,
{16}4/8,,4/8,,7,5,,3,4,2,5-1[8:1],3,4,,3/5,,
{16}2,,2,,2,4,,6,5,7,4-8[8:1],6,5,,4/6,,
{16}7,,7,,7,5,,3,4,2,5,3,4,,2x-5[8:1]/8x^3[8:1],,
{8},2/8,,1x^6[8:1]/7x-4[8:1],,1/7,,3x/8xh[4:1],
{16},,4,,6,5,,3,4,2,5-1[8:1],3,4,,3/5,,
{16}2,,2,,2,4,,6,5,7,4-8[8:1],6,5,,4/6,,
{16}7,,7,,7,5,,3,4,2,6,5,8-3[8:1],,3,,
{4}4h[8:5]/8,,{16},,5,5,{4}3pp8[8:5],
{1}7h[16:19],
{4}8h[8:3],,,7/8pp3[8:5],
{1}5h[16:19],
{4}3h[8:3],,,1^4[2:1]/6,
{16}5,,,5,,,6,,,7,,,5/8^5[2:1],,,,
{16}4,,,4,,,3,,,2,,,1^4[2:1]/4,,,,
{16}5,,,5,,,6,,,7,,,5-7[8:1]/7,,4,,
{8}3h[8:5],,,,,A7/D7/A6/E7,A2/D3/E3/A3,,,
E
最終更新:2026年07月13日 17:49