アットウィキロゴ

VERTeX (rintaro soma deconstructed remix)

アーティスト Hiro/rintaro soma

BPM BASIC ADVANCED EXPERT MASTER Re:MASTER
158 5 7+ 12+ 14+ -

EXPERT MASTER Re:MASTER
譜面制作者 Jack rintaro soma -

BASIC


ADVANCED


EXPERT


MASTER

(158)
{1}2bp8[1:1]/6h[1:1],,7q1[1:1]/3h[1:1],{2},{8}B1,B7,B5,B3,
{1}2p8[1:1]/6p4[1:1],,{4}2h[2:1]/8h[1:1],,,1>8[4:1],,,{8}2b,2b,{16}7,5,7,5,

8-5[16:1],,,48,,,3,3,6,4,6,4,7,5,7,5,8,7,6,5,8-5[8:1],1,2-5[8:1],3,{4},
{16}7-4[16:1],,,37,,,2,2,5,3,5,3,6,2,6,2,7,4,7,4,6qq4[4:1],5,6,5,{4},
{16}1-4[16:1],,,15,,,6,6,3,5,3,5,2,4,2,4,1,2,3,4,1-4[8:1],8,7-4[8:1],6,{4},
{16}2,,2,4,3,,7,5,6,,2,4,3,,6,,8,8,1,1,2,2,3,3,4,4,5,5,{4}6b/4b,

{16}3-8[8:1],,4,4,3,,5,5,3qq8[8:3],,4,4,{8}3,,4,5,6v1[8:1],57,
{16}6,,4,4,6-1[8:1],,5,5,6,,4,4,5V71[4:1],,3,3,{4}5,2h[4:1],{16}1-5[8:1],8,7,6,
{16}1^3[8:1]/5,,6,6,1v4[8:1],,5,5,1^3[8:1],,6,6,1s5[4:1],,7,7,{8}1,6,7,8,E2/A2,A7/B7,
{16}3,3,4,4,5,5,6,6,3,3,8,8,1,1,6,6,{32}2,3,4,,{16}6,6,{32}2,3,4,,{16}7,7,
3,3,8,8,4,4,6,,{1}E1/B1/Cf/B5/E5,{2},{12}3,4,2,6,5,7,

{4}1-5[8:1],1b/5b>1[4:1],1<5[4:1],5>1[4:1],1s5[4:1],6,8-3[8:1]*-5[8:1],8b,
{4}7-5[8:1],7/1-3[8:1],1/8-4[8:1],8/4-8[8:1],3-1[8:1],5-7[8:1],4-1^3b[4:1],4,
{16}5,,,6h[16:1],B1/E2,,5,,5,,,4h[16:1],B6/B7,,3,,3,,,4h[16:1],B7/B8,,5,,5,,,
6,{4}4h[4:1],{12}2h,5,7h,4,6h,1,3h,8,6h,2,8h,4,37,37,,{24}4,3,2,1,{12}48,{2}48,

{12}5,4,3,5,4,3,5,4,3,5V72V48-3[4:3],4,3,{1}5hb[4:3],
{12}4,5,6,4,5,6,4,5,6,4V61[4:1],5,6,{2}4hb[4:3],{12}2-5b[12:1],2,2,{4},
{12}4,3,2,4,3,2,4,3,2,4V27V51-6-3-8[4:3],3,2,{1}4hb[4:3],
{12}6,7,8,1,2,3,45,6,7,81,2,3,{4}4-2[8:1]/5-7[8:1],45,1b/8b,3b/6b,

{16}2,3,4,5,8,7,6,5,8,1,2,3,7,6,5,4,2,3,4,5,61,7,8,1,26,7,8,1,25,3,4,5,
{4}6-3[8:1]/2-7[8:1],26,4-7[8:1]/8,4/1-5[8:1],{16}1^4[8:1],,6,6,1,,8,8,1,7,2,6,{4}3b/5b,
{16}7,6,5,4,1,2,3,4,1,8,7,6,2,3,4,5,7,6,5,4,38,2,1,8,73,2,1,8,74,6,5,4,
{4}3/7-3[16:1]*-4[16:1],7b,{8}12,34,56,78,{2}1h[2:1]/2h[4:1],{24}2,3,4,1,2,3,8,1,2,7,8,1,
{1}6b<4[1:3],,Ch[4:1],{2},{8}B1,B7,B5,B3,{1}Ch[4:1]/2q5<4[1:3],,{2}Ch[4:1],,,B3/B4/E5f/B5/B6,

{8}1,1,1,{32}1/E7,B6,B5,E5,{8}1,1,1,{32}1/A3,E4,B4,B5,{8}1,1,1,{32}2/E7,B6,B5,E5,{4}2h[12:1],37,
{8}8,8,8,{32}8/E3,B3,B4,E5,{8}8,8,8,{32}8/A6,E6,B5,B4,{8}8,8,8,{32}7/E3,B3,B4,E5,{4}7,61,
{16}2,5,2,5,3,4,3,4,2-8b[8:1],5,2,5h[16:3],{4}2,{16}2,8,2,8,3,7,3,7,4,6,3,5,{4}2hb[4:1]/4,
{32}4b,53,64,75,{8},{32}5b/7b,46,35,24,{8},{32}E1,E2,E3,E4,E5,E6,E7,E8,D1,D2,D3,D4,D5,D6,D7,D8,
{2}D1f/Ch[1:1],,,{8}8z4[8:1]*v6[8:1],71,,,

1-6[8:1],6V82[8:1],1,{4}4-8[8:1],4/7-3[8:1],7/5-2[8:1]*-8[8:1],5,{16}37,,6,5,7,3,4,2,6,5,
{8}8-4[8:1],4-7[8:1],8,1,1,{16}7,5,6,3,{4}4-1[8:1],{8}8,{4}8v3[8:1]*v5[8:1],8,{8}26,26,
8-3[8:1],3V17[8:1],8,{4}5-1[8:1],5/2-6[8:1],2/4-7[8:1]*-1[8:1],4,{8}26,3-8[8:1]/5-8[8:1],4,35,,
{16}8,7,6,5,48,7,6,5,48,7,6,5,{8}1,1,26,{16}3,4,1hb[16:3],,,7b,8w4b[8:1],6b,1,,{4}8b,
{8}1-6[8:1],6V82[8:1],1,{4}4-8[8:1],4/7-3[8:1],7/5-2[8:1]*-8[8:1],5,
{16}37,,6,5,7,3,4,2,6,5,{8}8-4[8:1],4-7[8:1],8,1,1,26,

{32}3,4,5,6,7,8,1,2,{12}3b,3b,,{6}2b/6h[12:1],7b/3h[12:1],4b/8h[12:1],5b/1h[12:1],{12}2b/6b,
{2}2b-6[4:1]/6b,{16}8h[16:3],,,6h[16:3],,,5,,{2}5^8[4:1],{4}1h[4:1],4,
{8}25,6,4/7-3[8:1],8,{4}7/4-1[8:1]*-7[8:1],4,{8}8h[8:3],
{48}E2,B2,B3,E4,,,{8},{48}E8,B7,B6,E6,,,{4}4h[4:1],5,{48}E3,B3,B4,E5,,,E7,B6,B5,E5,,,

{1}1>8[4:3]*s5s1[4:3],{4},{16}1bV35[8:1]*V75[8:1],1b,1b,1b,{4}1b,
{16}2-5[16:1],,,28,,,6,6,2,4,2,4,2,1,2,8,2,7,2,6,2,5,2,4,{4}3b,
{32}5,4,5,4,{16}5,,3b/6,,,4/7b,,5b/6,5b/6,5b/6,,2/8b,,2b/8,,,1/7b,,6,6,{32}1,8,7,6,{8}5/8b,8b,
{16}2,2,4,4,5,5,7,7,3,3,8,8,1,1,6,6,{32}1,2,3,,{16}5,5,{32}8,1,2,,{16}4,4,
{32}7b,8b,1b,2b,3b,4b,,,7,5,7,5,7,5,7,5,{12}8b-4b[12:1],8b,,3b,,2b/6b,{1}4b/8b,,,,E

Re:MASTER


  • 追加しました。修正等ありましたらよろしくお願いします。 -- けもがみ (2023-07-14 12:08:04)
名前:
コメント:

タグ:

+ タグ編集
  • タグ:
最終更新:2026年04月12日 14:09