BASIC
ADVANCED
EXPERT
(213)
{2},,
{2}6h[1:4]/4h[2:1],, 4,4,
{2}5h[2:1],, 5,5,
{2}4xh[1:1],B4/B3, 7h[1:1],B6/B5,
{2}3h[1:1],Ch[2:1], {4},,81,81,
{4}7,7,6h[4:1]/5h[4:1],, 65,54,4h[4:1]/3h[4:1],,
{4}1b,1,6/2b,62, 5/3b,,8bx/1bx,72,
{8}54,,43,,2h[4:1],,4,4, ,5,5,,78,,61,,
{4}2h[4:1],1,83,7/4q5[4:3], ,,,,
{4}7bxh[1:1]/3bxh[1:1],,,, ,64,8b/2b,,
{8}35,,35,,56,,56,, 35,,56,,35,,2,2,
{8}4,,53,,54,,65,, 65,,74,,8,8,1,1,
{8}7h[4:1],,5,,3,3,4,, 6h[4:1],,5,,2,2,4,,
{4}5h[4:1]/3h[4:1],,64,73, 1b,2b,3b,54,
{4}6h[4:1],5,3,43, 2h[4:1],1,7,78,
{8}65,,74,74,,63,63,, {4}2x,2x/4x,1,82,
{4}3h[4:1],4h[4:1],5h[4:1],6, 7h[4:1],6h[4:1],5h[4:1],4,
{8}42,,81,81,,75,75,, {4}4b/3b,4b/3b,6b/2b,,
{4}2h[4:1],4,6,65, 7h[4:1],5,3,42,
{8}12,,83,83,,72,72,, 61,,52,,43,,52,,
{4}5/2-5[4:1],,6,65, 7-4[4:1]/4,,3,43,
{4}1b/2b,1b/2b,7b/8b,7b/8b, 6h[2:1]/1h[2:1],,,6x/1x,
{4}2h[4:1],4h[4:1],5h[4:1],7h[4:1], 1h[4:1],3,43,43,
{8}52,,63,63,,74,7h[4:1]/4,, 8,,61,,5,5,5,,
{4}64,2bx,53,7bx, 64,1bx,53,8bx,
{8}1,1,7,7,3,3,5,5, {4}4-8[4:1],,,7x/1x,
{4}6bx/2bx>7[4:3]b,,,, ,,,81,
{4}1bx,1,2bx,2, 3bh[2:5]/4,,B2/B3/E3f,,
{4}E8,E6,B8,B5, B1,B4,7xh[2:4],,
{4}B1,B4,B8,B5, E8,E6,1b,2,
{4}3h[2:1]/4,1x,4h[2:1],1x,5h[2:1],8x,6,7x/4x,
{8}3,3,4,,6,6,5,, 6xh[4:1]/4xh[4:1],,,6x/4x,6x/4x,,54,,
{8}3x,3xh[8:10],,5,,4,,2, ,4,,5,5,,54,,
{8}6x,6xh[8:10],,4,,5,,7, ,5,,4,4,,75,,
{8}7,7,5,5,6,6,4,4, 5,5,3,3,4,,43,,
{4}52,81,75,4qq4[2:1]b*pp4[2:1]b/3, ,,,,
{1}5x/3xpp8[4:5],,
{1}7xpp4[4:5]/1x,,
{4}4xh[8:3]/3xh[8:6],,,, ,43,52,,
{4}6h[8:6]/5h[8:3],,,, ,65,7/4h[2:1],,
{4}6<1[4:2],,,, 2,2,3,43,
{4}5<8[4:2],,,, 2,2,3,43,
{4}5-1[4:2],,,2, 2-6[4:2],,,7,
{4}8,8,7,6V41[4:2]*>1[4:2], ,,,8b,
{8}71,,62,,43,,2,2, 1,,12,,81,,7,7,
{8}8,,61,,72,,83,83, {4}8<4[4:2]/3h[4:3],,,,
{8}3,3,5,5,4,4,6,6, 2,2,8,8,1,1,7,7,
{8}1,1,8,8, 1,1,8,8, {16}1x,8x,1x,8x,1x,8x,1x,8x, 1x,8x,1x,8x,1bx-5[8:1]b,,,,
{1}, {4}5h[8:3]/4h[8:3],,54,1b,
{8}8x/2x>5[8:1],,6,6h[8:2],,5,,78, 7-3[8:1]/8,,2,2h[8:2],,1,,83,
{8}83,,7,7,5,6,3,3, 4/2-5[8:1],,6,6-1[8:1],,3,3,,
{8}8x/2x>5[8:1],,7,7h[8:2],,8,,61, 6x<1[8:1]/1,,3,3h[8:2],,4,4,,
{8}2,2,4,3,6,6,5,7, {4}7h[4:1],8,12,8b/3b,
{8}7,7h[8:2],,5,5h[8:2],,3,3h[8:2], ,1,1,,8/2-7[8:1],,6-3[8:1],,
{8}1,,42,42,,65,6/5h[4:1],, 4h[4:1],,3,,5-1[8:1]/2,,2x,,
{8}3,3h[8:2],,5,5h[8:2],,7,7h[8:2], ,8,8,,61,,61,,
{2}7-3[8:1]/8h[4:1],1h[4:1]/2-6[8:1], {8}8x,,7x/5x,7x/5x,,4bx/2bx,4bx/2bx>7[1:1]b,,
{1}Cf, {8},,,,8,8,81,,
{4}2-5[8:1],8-4[8:1],1-5[8:1],7-4[8:1], 1-6[8:1]*-4[8:1],,7bx/3bx,7x/3x,
{8}2,2,1/2-6[8:1],,8-4[8:1],,3,, 52,,43,,6,6,75,,
{8}3,3,4,2,8,8,1,7, 3,3,4,2,8-4[8:1],,1b,,
{8}2h[4:1],,1,83,74,,7-4[8:1],, 3-8[8:1],,6-1[8:1],,4,,82,,
{8}7h[4:1],,8,61,52,,2-5[8:1],, 6-1[8:1],,3-8[8:1],,5,,7bx/1bx,,
{8}6,6,7b/5b,,3,3,4b/2b,, 78,78,6b/1b,,12,12,8b/3b,,
{4}8/3-5[8:1],7-3[8:1],1-5[8:1],8<3[2:1], 4x,,,1b,
{8}8x/1x,,,7, {16}7h[16:3],,,6h[16:3],,,5h[16:3],, ,4h[16:3],,,3,,3,, {8}3-8[8:1]*-6[8:1],,,,
{8}7bx/1bx,,,2, {16}2h[16:3],,,3h[16:3],,,4h[16:3],, ,5h[16:3],,,6,,6,, {8}6-3[8:1]*-1[8:1],,,,
{8}8bx/2bx,,,7h[8:2]/3h[8:2],,,6x/4x,, 53,,6V48[2:1]/2h[4:1],, ,,,,
{4}1b,65,7h[4:1]/2b,5, 4<8[4:2]/3b,,,1xw5[8:1]b,
{1},E
MASTER
(213)
{2},{8},Ch[8:3],,,{2}D5,E6,D7,E8,D1,E2,D3,{4}E4,5h[4:1],{2}4x,E5,E3,E1,E7,E5,{4}4hx[4:1],5,
{8}3,5,4,6,5,5,7h[8:1],,4,4,6h[8:1],,3,3,{4}5h[8:1],2-8[8:1],4,
{2}E6/B6/B7/E8f,D1/A1/D2/A2/B2/C/B3f/A3,D8/A8/B8/B7/E7f/B6/B5/A5/D6,4w8b[8:1],2hb[4:1]/6hb[4:1],
{8}35,,4,4,,6,6,,{2}7-5[8:1]/5-1[8:1],2h[4:1]/4h[4:1],{8}57,,6,6,
{24}1,2,3,4,5,6,7,8,1,2,3,4,{8}5x-1[8:1],5x,,,{1}3hb[1:1]/7hb[1:1],{4},{8}46,5,{2}3-5[8:1]/7-1[8:1],
{8}3,4,52,3,4,3,25,4,3,4,52,3,4,3,25,25,6,5,47,6,5,6,74,5,6,5,47,6,45,45,45,45,
3-8[8:1],3,6,6,7-4[8:1],7,1,1,2-6[8:1],2,5<3[4:1],5,{2}4h[4:1],
1^6[8:1]/7-3[8:1],{8}4,5,6,7,{4}1b-7[8:1],2b-6[8:1],3b-5[8:1],,
{8}2x/6x,6,2,7,27,,28,8,2,6,62,,2-4[8:1]/8,,6,6,65,,57,7,5,8,{4}58,5-1[8:1]/7b,5/6b,{16}78,,6,5,6,,4,,
{8}7x/3x,3,7,2,72,,71,1,7,3,37,,7-5[8:1]/1,,3,3,34,,42,3,4x/5x,4x/5x,
{4}3b/6b-4[8:1],6x/2-6[8:1],2x/8-2[8:1],8x/4-8[8:1],4x/5x,
{8}2x/6x,6h[8:1],2,7,2/7h[8:1],,28,8h[8:1],2,7,7h[8:1]/2,,2-4[8:1]/5h[8:1],,
5,6,5/6h[8:1],,57,7h[8:1],5,8,8h[8:1]/5,,{4}5-1[8:1]/7-5[8:1],57,
{16}24,,3,4,{8}2,2,1x/8x,1hb[8:1]/8hb[8:1],,36,2-6[8:1],7-3[8:1],2,7,
{4}1V35[4:1],5V71[4:1],1-5[8:1],5,{16}4b/6b,,3,4,2b,,6,5,7b,,{8}1x/8x,1x/8x,1x/8x,
{2}2h[8:3]/7h[8:3],{4}4-1[8:1]/8-5[8:1],4b/8b,
{8}2-4[8:1],5,2,8-6[8:1],5,8,1-5[8:1],5,1,7,7,4,2-7[8:1]/6-3[8:1],,26,,
1^4[8:1],4,1,8^5[8:1],5,8,3,3,2-4[8:1]/4-8[8:1],,24,,5x/7x,4x/5x,2x/4x,,
1/8^5[8:1],1h[8:1]/8,,,4/3^8[8:1],4h[8:1]/3,,,7/6^3[8:1],7h[8:1]/6,,,2/1^6[8:1],2h[8:1]/1,,,
{16}4b/5b,,3,4,2b,,6,5,7b,,{8}18,27,36,4b/5b,,
{32}18,2,3,4,5,6,7,8,{4}1xw5[8:1],Cf,{1}3bpp2[2:3]/7bpp6[2:3],,
{4}1hb[4:1]/7,5,2hb[4:1]/6,4,{24}3hb[4:1]/5,6,7,8,1,2,,4,5,6,7,8,{2}1w5b[8:1],
3h[4:1]/7h[4:1],{8}5,6,6,5,4,4,5,6,{4}6^1[8:1],56,2h[4:1]/4h[4:1],,{8}4,3,3,4,5,5,4,3,{4}3^8[8:1],43,
{8}5h[8:1]/7,7,8x,,6h[8:1]/5,5,1x,,3h[8:1]/4,4,8x,,4h[8:1]/2,2,1x,,
7-4[8:1],8,7,3,5-8[8:1],4,5,1,{16}7h[16:3],,,5h[16:3],,,{8}4,4-8[8:1],,1,,
3x,{4}3hx[2:3],4,2,5,4,6,{8}4,25,,6x,{4}6hx[2:3],5,7,4,5,3,{8}5,74,,
2-5[8:1],1,2,6,4-1[8:1],5,4,8,{16}2h[16:3],,,4h[16:3],,,{8}5,5-1[8:1],,8,,
{2}2^4[8:1]/6^8[8:1],1h[2:1]/5h[2:1],{8},4pp4b[8:3]*qq4b[8:3]/8,,,{2},
{8}3hx[4:1]/5hx[4:1],,,3h[4:1]/5h[4:1],,,3h[4:1]/5h[4:1],,,4,4,,4,,4,,
4h[4:1],,,3h[4:1]/5h[4:1],,,{1}2qq3[4:3]/6qq7[4:3],{8},,
{8}6hx[4:1]/4hx[4:1],,,6h[4:1]/4h[4:1],,,6h[4:1]/4h[4:1],,,5,5,,5,,5,,
5h[4:1],,,6h[4:1]/4h[4:1],,,{4}3^6[8:3]/7^2[8:3],,,4-1[8:1]/8-5[8:1],4x/8x,
26,4,,4,6h[4:1],4h[4:1],2h[4:1],4,{8}3h[4:1]/5h[4:1],,,2h[4:1]/6h[4:1],,,{4}17,
8^5[4:1],5^2[4:1],2^7[4:1],7,4hx[1:1],5,,5,7h[4:1],5h[4:1],3h[4:1],5,
{8}4h[4:1]/6h[4:1],,,5h[4:1]/3h[4:1],,,{1}4V62-8[2:1]/5V37-1[2:1],{4}2b/7b,
45,24,57,{8}12,12,38,,56,,34,34,{16}6,5,6,,{8}78,78,16,,34,,18,18,2-4[8:1]/7-5[8:1],,2/7,,
18,27,36,45,36,36,1h[8:1]/8h[8:1],,2h[8:1]/4,,3h[8:1]/5,5,4h[8:1]/6,,
5h[8:1]/7,,6h[8:1]/4,4,7h[8:1]/5,5,48,48,37,37,26,26,15,15,
{16}2,4,2,4,3,5,3,5,4,6,4,6,5p4[8:3],7,5,7,{2},{8}D1,E8,C,E6,D5,E4,C,E2,{4}D1,A3/B3/Cf/B7/A7,
{8}2x^5[8:1]/8x,,2,8h[8:1],6,7h[8:1],5,3,7^4[8:1]/1,,7,1h[8:1],3,2h[8:1],{16}4x,5x,6x,7x,
{8}1x/8x,,3-8[8:1]/7-4[8:1],48,37,,26,26,1-4[8:1],8,1,6-1[8:1],5,6,4,3,
1x/2x^5[8:1],,2,8h[8:1],6,7h[8:1],5,6,8x/7x^4[8:1],,7,1h[8:1],3,2h[8:1],4,35,
6,6-4[8:1],3,6,2,2-6[8:1],4,2,8,,{16}18,27,{8}36,3bx/6bx,,1x/8x,,2-5[8:1]/7-4[8:1],18,2b/7b,,36,,
18,7,64,3,{4}1/2-6[8:1],8^5[8:1]/2,{8}3,3,2h[8:1]/4h[8:1],,57,7,46,3,37,8,
{4}1-5[8:1]/2-4[8:1],12,{16}78,,6,5,{8}6,4,2-6[8:1],13,2,,57,,
81,2,35,6,{4}8/7-3[8:1],1^4[8:1]/7,{8}6,6,{2}8-4[8:1]/7-5[8:1],
{8}1/2^5[8:1],,8,8,6h[4:1]/7h[4:1],,,2h[4:1]/3h[4:1],,,4b>5[4:5]/8b,,{1}Cf,{2},
{16}45,,1,8,{8}2b/7b,,2h[8:1],4,3,7h[8:1],5,6,{4}1^4[8:1]/4,1b/8^5[8:1],8b/5,
{16}34,,2,1,{8}2,38,7-3[8:1],68,7,,24,,18,7,64,3,{4}1/2-6[8:1],8^5[8:1]/2,{8}4,4,
3,3-5[8:1],6,3,7,7-3[8:1],5,7,2,12,,7,7/8-4[8:1],,1b/8b,,
2^5[8:1],1,2,7^4[8:1],8,7,1x-5[8:1],5x,{4}1x-3[8:1]*-4[8:1],1b-6[8:1]*-7[8:1],1b-5[8:1],1b,
{8}7^4[8:1],8,7,2^5[8:1],1,2,8x-4[8:1],4x,{4}8b^3[8:1]*^5[8:1],8b,{8}26,26,37,37,
4b-2[8:1]/8b-4[8:1],4b/8b,,,5b-7[8:1]/1b-5[8:1],5b/1b,,,{4}4/8-4[8:1],8/2-7[8:1],2/6-3[8:1],36,
1-5b[8:1]/8-6b[8:1],1b/8b,8-4b[8:1]/1-3b[8:1],8b/1b,{8}56,7,8,34,2,1,3b/7b,,
1hx[4:1]/5hx[4:1],,,46,46,{16}2,1,2,,38,,7,5,,5,6,,6,,3,4,2,,6,5,7,,
{8}8hx[4:1]/4hx[4:1],,,53,53,{16}7,8,7,,61,,2,4,,4,3,,3,,6,5,7,,3,4,2,,
{8}1x/5x,2,3,4x/8x,7,6,5x/4x,45,3b/6b,36,2b/7b,27,{24}1b/8b,2,3,4,5,6,7,8,1,2,3,4,
{4}5x/1bx-5[8:1],15,2bx-5[8:1]/6x-1[8:1],26,3bx>5[2:1]/7x,,,4w8[8:1],{1}4b,,,,E
Re:MASTER
- added EXPERT. -- cubruce1103 (2023-07-22 00:06:42)
- 追加しました。修正等ありましたらよろしくお願いします。 -- けもがみ (2023-08-13 14:18:30)
最終更新:2026年05月01日 20:51